<?xml version="1.0" standalone="no"?>
<!DOCTYPE svg PUBLIC "-//W3C//DTD SVG 1.1//EN" "http://www.w3.org/Graphics/SVG/1.1/DTD/svg11.dtd">
<svg xmlns="http://www.w3.org/2000/svg">
<metadata>Copyright (C) 2024 by original authors @ fontello.com</metadata>
<defs>
<font id="ifema" horiz-adv-x="1000" >
<font-face font-family="ifema" font-weight="400" font-stretch="normal" units-per-em="1000" ascent="850" descent="-150" />
<missing-glyph horiz-adv-x="1000" />
<glyph glyph-name="metro" unicode="&#xe800;" d="M94 663c-17 0-31-14-31-32v-375c0-51 42-93 93-93h641c78 0 141 63 141 140 0 199-161 360-360 360h-359z m31-63h63v-94c0-86 69-156 156-156l527 0c3-15 4-31 4-47 0-43-35-78-78-78h-641c-17 0-31 14-31 31z m125 0h125v-187 0h-31c-52 0-94 42-94 93z m188 0h140c5 0 11 0 16 0v-187l-156 0v0z m218-10c91-25 164-91 198-177h-198z m-562-490c-17 0-31-14-31-31 0-17 14-31 31-31h812c18 0 32 14 32 31 0 17-14 31-32 31z" horiz-adv-x="1000" />

<glyph glyph-name="dropdown" unicode="&#xe801;" d="M250 522c-12 0-24-5-33-14-18-18-18-48 0-66l250-250c18-18 48-18 66 0l250 250c19 18 19 48 0 66-18 19-48 19-66 0l-217-217-217 217c-9 9-21 14-33 14z" horiz-adv-x="1000" />

<glyph glyph-name="arrow" unicode="&#xe802;" d="M500 522c-12 0-24-5-33-14l-250-250c-18-18-18-48 0-66 18-18 48-18 66 0l217 217 217-217c18-18 48-18 66 0 19 18 19 48 0 66l-250 250c-9 9-21 14-33 14z" horiz-adv-x="1000" />

<glyph glyph-name="facebook" unicode="&#xe803;" d="M314-110l0 463 128 0 17 160-145 0 1 80c0 41 4 64 63 64l80 0 0 159-128 0c-153 0-207-77-207-207l0-96-96 0 0-160 96 0 0-463 191 0z" horiz-adv-x="500" />

<glyph glyph-name="flickr" unicode="&#xe804;" d="M2074 324c0-243-201-440-449-440-248 0-448 197-448 440 0 243 200 440 448 440 248 0 449-197 449-440m-1139 0c0-243-201-440-449-440-248 0-448 197-448 440 0 243 200 440 448 440 248 0 449-197 449-440" horiz-adv-x="2100" />

<glyph glyph-name="instagram" unicode="&#xe805;" d="M495 833c-130 0-146-1-197-3-51-2-86-10-116-22-31-12-58-29-85-55-26-27-43-53-55-85-12-30-20-65-22-116-2-51-3-67-3-197 0-130 1-146 3-197 2-51 10-86 22-116 12-31 29-58 55-85 27-26 54-43 85-55 30-12 65-20 116-22 51-2 67-3 197-3 130 0 146 1 197 3 51 2 86 10 116 22 32 12 58 29 85 55 26 27 43 54 55 85 12 30 20 65 22 116 2 51 3 67 3 197 0 130-1 146-3 197-2 51-10 86-22 116-12 32-29 58-55 85-27 26-53 43-85 55-30 12-65 20-116 22-51 2-67 3-197 3l0 0z m-43-86c13 0 27 0 43 0 128 0 143-1 193-3 47-2 72-10 89-16 22-9 38-19 55-36 17-17 27-33 36-55 6-17 14-42 16-89 2-50 3-65 3-193 0-127-1-143-3-193-2-47-10-72-16-89-9-22-19-38-36-55-17-16-33-27-55-35-17-7-42-15-89-17-50-2-65-3-193-3-128 0-143 1-193 3-47 2-72 10-89 17-22 8-38 19-55 35-16 17-27 33-36 55-6 17-14 42-16 89-2 50-3 66-3 193 0 128 1 143 3 193 2 47 10 72 16 89 9 22 20 38 36 55 17 17 33 27 55 36 17 6 42 14 89 16 44 2 61 3 150 3l0 0z m298-80c-31 0-57-25-57-57 0-32 26-57 57-57 32 0 58 25 58 57 0 32-26 58-58 58l0-1z m-255-67c-135 0-245-109-245-245 0-136 110-245 245-245 136 0 246 109 246 245 0 136-110 245-246 245l0 0z m0-86c88 0 159-71 159-159 0-88-71-159-159-159-88 0-159 71-159 159 0 88 71 159 159 159l0 0z" horiz-adv-x="1000" />

<glyph glyph-name="linkedin" unicode="&#xe806;" d="M263 517l0-644-214 0 0 644 214 0z m14 199c0-62-46-111-121-111l-1 0c-72 0-119 49-119 111 0 63 48 112 121 112 74 0 119-49 120-112z m759-474l0-369-214 0 0 345c0 86-31 145-109 145-59 0-94-40-110-78-5-14-7-33-7-52l0-360-214 0c0 0 3 584 0 644l214 0 0-91c29 44 80 106 193 106 141 0 247-92 247-290z" horiz-adv-x="1056" />

<glyph glyph-name="youtube" unicode="&#xe807;" d="M1344 632c0 0 13-108 13-215l0-101c0-107-13-214-13-214 0 0-13-92-52-132-50-53-106-53-131-56-183-13-457-14-457-14 0 0-340 3-445 13-29 6-94 4-144 57-39 40-52 132-52 132 0 0-13 107-13 214l0 101c0 107 13 215 13 215 0 0 13 91 52 131 50 53 106 53 131 56 183 14 457 14 457 14l1 0c0 0 274 0 457-14 25-3 81-3 131-56 39-40 52-131 52-131z m-775-437l353 185-353 187 0-372z" horiz-adv-x="1357" />

<glyph glyph-name="star-7" unicode="&#xe808;" d="M464 790l98-300 278 150-173-264 291-123-315-30 85-304-219 228-185-256 41 313-315-15 270 163-208 237 296-110 56 311z" horiz-adv-x="1000" />

<glyph glyph-name="multiply" unicode="&#xe809;" d="M809 41c15 14 15 38 0 53l-256 256 256 256c15 15 15 39 0 53-14 15-38 15-53 0l-256-256-256 256c-15 15-39 15-53 0-15-14-15-38 0-53l256-256-256-256c-15-15-15-39 0-53 14-15 38-15 53 0l256 256 256-256c15-15 39-15 53 0z" horiz-adv-x="1000" />

<glyph glyph-name="cod-mobile" unicode="&#xe80a;" d="M1000 359c0-131 0-261 0-391 0-4-3-10-6-12-35-29-71-58-107-86-4-4-8-2-12 1-37 29-74 58-111 86-14 11-28 21-41 32-3 2-5 6-5 9 0 61 0 122 0 183 0 65 0 131 0 196 0 99 0 199 0 298 0 17 0 33 1 49 0 4 2 8 5 10 42 27 85 54 128 81 7 5 15 10 22 14 5 4 10 4 16 1 24-16 48-32 72-48 10-6 20-13 30-19 6-3 8-7 8-13 0-131 0-261 0-391h0z m-1000 2c0 128 0 257 0 385 0 9 2 13 10 18 28 18 57 37 85 56 5 4 11 7 16 11 5 3 9 3 14-1 41-27 83-53 124-80 9-5 17-10 26-16 5-3 7-7 7-13-1-131-1-261-1-392 0-109 0-218 1-326 0-7-2-11-8-15-34-26-68-52-101-79-17-13-34-26-50-40-4-3-7-2-10 0-22 18-44 36-65 53-14 11-27 22-40 32-5 5-8 9-8 16 0 130 0 260 0 391h0z m307 352c7-4 14-8 20-12 54-35 108-69 163-104 7-5 12-5 19 0 52 33 104 67 156 100 9 5 17 11 27 17 0-4 1-7 1-10 0-124 0-248 0-372 0-35 0-71 0-106 0-6-2-11-9-14-58-28-116-57-174-86-7-4-14-4-21-1-58 30-117 59-176 88-4 3-6 5-6 10 0 147 0 294-1 441 0 14 0 28 0 43 0 2 1 4 1 6z" horiz-adv-x="1000" />

<glyph glyph-name="efootball" unicode="&#xe80b;" d="M500 665c93 0 177-41 235-105h219c-79 171-253 290-454 290-201 0-374-119-454-290h219c58 64 142 105 235 105z m0-630c-93 0-177 41-235 105h-219c79-171 253-290 454-290 201 0 375 119 454 290h-219c-58-64-142-105-235-105z m315 315c0 32-5 63-14 93h-792c-6-30-9-61-9-93s3-62 9-92h792c9 29 14 60 14 92z" horiz-adv-x="954" />

<glyph glyph-name="icon-card-view" unicode="&#xe80c;" d="M278 650c0-34-28-62-62-62-35 0-63 28-63 62 0 35 28 63 63 63 34 0 62-28 62-63z m0-300c0-34-28-62-62-62-35 0-63 28-63 62 0 35 28 63 63 63 34 0 62-28 62-63z m0-300c0-34-28-63-62-63-35 0-63 29-63 63 0 35 28 63 63 63 34 0 62-28 62-63z m300 600c0-34-28-62-62-62-35 0-63 28-63 62 0 35 28 63 63 63 34 0 62-28 62-63z m0-300c0-34-28-62-62-62-35 0-63 28-63 62 0 35 28 63 63 63 34 0 62-28 62-63z m0-300c0-34-28-63-62-63-35 0-63 29-63 63 0 35 28 63 63 63 34 0 62-28 62-63z m300 600c0-34-28-62-62-62-35 0-63 28-63 62 0 35 28 63 63 63 34 0 62-28 62-63z m0-300c0-34-28-62-62-62-35 0-63 28-63 62 0 35 28 63 63 63 34 0 62-28 62-63z m0-300c0-34-28-63-62-63-35 0-63 29-63 63 0 35 28 63 63 63 34 0 62-28 62-63z" horiz-adv-x="1031" />

<glyph glyph-name="pinterest" unicode="&#xe813;" d="M449 850c-279 0-427-176-427-367 0-89 50-200 131-235 12-5 19-3 22 8 2 9 13 50 18 69 1 6 1 12-4 17-27 31-49 86-49 139 0 133 108 263 292 263 159 0 270-102 270-247 0-164-88-277-203-277-63 0-111 49-96 109 19 72 54 150 54 202 0 47-27 85-82 85-64 0-117-63-117-147 0-54 20-90 20-90 0 0-64-254-76-301-20-81 3-211 5-222 1-6 8-8 12-3 6 8 83 116 105 195 8 28 40 144 40 144 22-38 83-69 148-69 195 0 336 168 336 377-1 200-175 350-399 350z" horiz-adv-x="870" />

<glyph glyph-name="profesionales" unicode="&#xe814;" d="M455 338c-186-2-278-85-317-169-38-83-27-165-27-165a28 28 0 0 1 32-24 28 28 0 0 1 24 32c0 0-8 67 22 134 31 66 97 134 267 136 59 0 105-8 142-23a28 28 0 0 1 36 16 28 28 0 0 1-16 37c-44 17-98 27-163 26z m-9 434c-97 0-177-80-177-177 0-97 80-176 177-176 97 0 176 79 176 176 0 97-79 177-176 177z m0-57c67 0 120-53 120-120 0-67-53-120-120-120-67 0-120 53-120 120 0 67 53 120 120 120z m413-606a23 23 0 0 1-24-24v-119h-294v117a23 23 0 0 1-23 24 23 23 0 0 1-24-24v-129c0-20 18-35 36-35h316c19 0 36 15 36 35v131a23 23 0 0 1-23 24z m-215 224c-30 0-49-26-49-54v-53a23 23 0 0 1 23-23 23 23 0 0 1 24 23v53c0 6 3 7 2 7h89c-2 0 2-1 2-7v-53a23 23 0 0 1 23-23 23 23 0 0 1 24 23v53c0 28-20 54-49 54z m-131-90c-5 0-17 2-28-11l0 0c-8-9-8-18-8-21-1-30-2-60-1-89 0-7 0-18 7-30 10-18 26-23 37-26 34-11 69-16 102-19a23 23 0 0 1 25 22 23 23 0 0 1-22 25c-31 3-62 7-91 16-8 3-11 6-10 5 0-1-1 2-1 8-1 24 0 49 1 73 109 0 219 0 329 0 1-25 1-50 1-75-34-13-70-23-105-27a23 23 0 0 1-21-26 23 23 0 0 1 26-21c41 5 82 17 119 31l0 0c4 2 13 5 21 15 7 11 7 21 7 25 0 31 0 61-2 91 0 4 0 13-8 23-11 12-24 11-29 11-116 0-233 0-349 0z m135-120a21 21 0 0 1-21-21v-63a21 21 0 0 1 21-21h80a21 21 0 0 1 21 21v63a21 21 0 0 1-21 21z m21-42h38v-21h-38z" horiz-adv-x="1000" />

<glyph glyph-name="internet-2" unicode="&#xe818;" d="M474 779c-212 0-385-173-385-385 0-212 173-385 385-385 66 0 127 16 181 45a21 21 0 1 1-20 38 342 342 0 0 0-58-25c16 18 30 40 42 65 14 28 26 60 35 96l78-293a21 21 0 0 1 39-5l39 66 72-82a21 21 0 0 1 30-1l62 58a21 21 0 0 1 2 29l-71 82 65 29a21 21 0 0 1 2 38l-148 84a383 383 0 0 1 35 161c0 212-172 385-385 385z m-21-53v-173h-116c8 31 18 60 30 84 25 50 55 80 86 89z m43 0c30-9 61-39 85-89 12-24 23-53 31-84h-116v173z m-124-6c-16-18-30-39-43-64-15-30-27-65-36-103h-77a21 21 0 1 1 0-43h69a707 707 0 0 1-10-116c0-41 3-80 9-116h-132a343 343 0 0 0-20 116c0 154 101 283 240 326z m204 0a342 342 0 0 0 202-167h-123c-9 38-21 73-36 103-12 25-27 46-43 64z m-248-210h125v-232h-125a669 669 0 0 0-10 116c0 41 3 80 10 116z m168 0h125c6-36 10-75 10-116a669 669 0 0 0-10-116h-125v232z m168 0h133a342 342 0 0 0-10-256l-117 67a739 739 0 0 1 4 73c0 41-4 79-10 116z m25-249l225-129-53-23a21 21 0 0 1-7-34l76-87-31-29-77 88a21 21 0 0 1-34-4l-28-47-71 265z m-518-26h122c9-38 21-73 36-103 13-25 27-47 43-65a343 343 0 0 0-201 168z m166 0h116v-174c-31 10-61 40-86 90-12 24-22 53-30 84z m159 0h116c-8-31-19-60-31-84-24-50-55-80-85-90v174z" horiz-adv-x="1000" />

<glyph glyph-name="artsys" unicode="&#xe81d;" d="M100 750v-800h803v800h-803z m744-744h-122v157h-56v-157h-510v685h688v-685z m-510 382h113l31-85h60l-116 306h-63l-115-306h59l31 85z m54 165l40-103h-75l35 103z" horiz-adv-x="1000" />

<glyph glyph-name="download-2" unicode="&#xe81e;" d="M479 290l177 200 63-56-240-269-239 269 62 56 177-200z m42 435v-497h-83v497h83z m-438-488h84v-188h625v188h83v-271h-792v271z" horiz-adv-x="1000" />

<glyph glyph-name="arrow-3" unicode="&#xe82a;" d="M673 563a25 25 0 0 1-17-8 25 25 0 0 1 0-35l160-160-160-160a25 25 0 0 1 0-35 25 25 0 0 1 36 0l177 177a25 25 0 0 1 0 36l-177 177a25 25 0 0 1-19 8z m-548-176a25 25 0 0 1-25-25 25 25 0 0 1 25-25h695a25 25 0 0 1 25 25 25 25 0 0 1-25 25z" horiz-adv-x="1000" />

<glyph glyph-name="video-play" unicode="&#xe82b;" d="M429 457v-214l160 105z" horiz-adv-x="1000" />

<glyph glyph-name="ring-more" unicode="&#xe82c;" d="M500 788c-241 0-437-197-437-438 0-241 196-438 437-438 241 0 438 197 438 438 0 241-197 438-438 438z m0-32c225 0 406-181 406-406 0-225-181-406-406-406-225 0-406 181-406 406 0 225 181 406 406 406z m-172-390v-32h344v32z m156 156v-344h32v344z" horiz-adv-x="1000" />

<glyph glyph-name="ring-less" unicode="&#xe82d;" d="M500 788c-241 0-437-197-437-438 0-241 196-438 437-438 241 0 438 197 438 438 0 241-197 438-438 438z m0-32c225 0 406-181 406-406 0-225-181-406-406-406-225 0-406 181-406 406 0 225 181 406 406 406z m-172-390v-32h344v32z" horiz-adv-x="1000" />

<glyph glyph-name="ring-arrow-right" unicode="&#xe82e;" d="M500 788c-241 0-437-197-437-438 0-241 196-438 437-438 241 0 438 197 438 438 0 241-197 438-438 438z m0-32c225 0 406-181 406-406 0-225-181-406-406-406-225 0-406 181-406 406 0 225 181 406 406 406z m86-297a16 16 0 0 1-10-4 16 16 0 0 1 0-22l78-78-78-78a16 16 0 0 1 0-22 16 16 0 0 1 22 0l89 89a16 16 0 0 1 0 22l-89 89a16 16 0 0 1-12 4z m-273-88a16 16 0 0 1-16-15 16 16 0 0 1 16-16h347a16 16 0 0 1 16 16 16 16 0 0 1-16 15z" horiz-adv-x="1000" />

<glyph glyph-name="download-3" unicode="&#xe830;" d="M390 293c-4 0-8-1-11-4-6-7-6-16 0-23l111-111c6-6 16-6 22 0l111 111c7 7 7 16 0 23-6 6-16 6-22 0l-100-100-100 100c-3 3-7 4-11 4z m112 343c-8 0-15-7-15-15v-435c0-9 7-16 15-16 9 0 16 7 16 16v435c0 8-7 15-16 15z m-314-604v-31h593v31z m15 188c-8 0-15-7-15-16v-203h31v203c0 9-7 16-16 16z m594 0c-9 0-16-7-16-16v-203h32v203c0 9-7 16-16 16z" horiz-adv-x="1000" />

<glyph glyph-name="pause" unicode="&#xe831;" d="M55 794v-889h333v889z m556 0v-889h333v889z" horiz-adv-x="1000" />

<glyph glyph-name="video" unicode="&#xe835;" d="M250 715c-63 0-115-52-115-115v-500c0-63 52-115 115-115h500c63 0 115 52 115 115v500c0 63-52 115-115 115z m0-63h500c29 0 52-23 52-52v-500c0-29-23-52-52-52h-500c-29 0-52 23-52 52v500c0 29 23 52 52 52z m209-187c-17 0-32-13-32-32v-166c0-25 27-40 48-27l135 83c20 13 20 41 0 54l-135 83c-5 3-11 5-16 5z m31-88l44-27-44-27z" horiz-adv-x="1000" />

<glyph glyph-name="tiktok" unicode="&#xe836;" d="M823 628c-7 3-13 7-19 11-18 12-35 26-50 41-36 42-50 85-55 115h0c-4 25-2 41-2 41h-167v-647c0-8 0-17-1-26 0-1 0-2 0-3 0 0 0-1 0-1 0 0 0 0 0 0-3-48-30-90-71-113-21-12-45-18-69-18-78 0-141 63-141 142s63 142 141 142c14 0 29-3 43-7l0 170c-86 11-172-14-239-70-28-25-53-55-71-88-7-12-34-61-37-141-2-45 11-91 18-110v-1c4-11 20-50 45-83 21-26 45-49 72-68v0l1 0c80-55 170-52 170-52 16 1 68 0 127 28 65 31 103 78 103 78 23 27 42 59 55 93 16 40 21 87 21 106v343c2-1 29-19 29-19s39-25 99-41c44-12 103-14 103-14v166c-21-2-62 4-105 26z" horiz-adv-x="1014" />

<glyph glyph-name="fortnite" unicode="&#xe839;" d="M330 349c0-227 0-414 1-414 1 0 154 29 173 33l10 1v152 152h58 58v28c0 15 0 54 1 88l1 60h-59-59v67 66h68c38 0 69 0 69 1 0 2 15 162 15 170l2 9h-169-169z" horiz-adv-x="1000" />

<glyph glyph-name="rocketleague" unicode="&#xe83a;" d="M209 737c-39 0-70-15-91-38-20-23-30-53-30-83 0-30 10-60 30-83 4-4 8-8 13-12 9-135 67-426 377-571 0 0 0 0 0-1 1 0 3-1 6-2l8-4 8 4c3 1 6 3 6 3 413 193 378 645 378 645l-1 10-8 5c-100 66-234 88-377 89v0h-12v0c-71-1-140-7-204-20-21 35-59 58-103 58z m0-37c46 0 83-38 83-84 0-46-37-83-83-83-29 0-49 10-63 25-13 15-21 37-21 58 0 22 8 43 21 58 14 15 34 26 63 26z m307-39v0h12 0c135-1 258-23 348-78 1-15 6-118-34-240-17 31-56 62-109 72-19 4-44-1-58-14l-12 4v1c0 0 23 16 33 19 0 0 4 1 7 3 0 3-1 6-14 12-12 7-29 5-29 5l12 8v1l-26 27v4l-11 11c0 0 1 5-3 8-5 5-10 8-11 9-2 2-7 3-7 3 0 0 4 7 4 10 0 0 0 1-2 1-1 0-17 11-22 13-4 1-18 4-20 4-1 0-3-1-3-3 0-1-2-9-2-9l13-5-2-5-8 2c-4 3-28 12-52 16-25 3-53 4-57 4-3 0-6-1-21-6-16-5-27-9-33-9-6-2-28-2-28-2 0 0 0 2-9 6-10 5-32 16-39 17-2 0-2-1-2-1 0 0-4 0-4-8-2 1-5 1-5 1l-3-7c-7 1-12 3-17 4 18 21 28 47 28 77 0 9-1 18-3 26 58 13 122 19 189 19z m-186-116c0 0 34-11 42-17-5 0-14-2-14-2 0 0-5 5-30 8 0 6 2 11 2 11z m123-3c0 0 22-7 45-16 0 0-27-15-28-15-2 0-6-4-14 0-9 3-31 10-33 10-1 0-12 7-12 7 0 0 40 14 42 14z m-150-7c4-1 8-3 14-4v-2l2 5 30-8c0 0-7-1-11-1l1 0c0 0-23-5-26-5 0-2-2-2-2-3h-1v-6l-2-2v-1c3-2 13-8 16-10h3l1-1c0 0-6 1-7-2-2-3-4-14-4-14 0 0 0-5 10-5v-1l-2-1h-3l-3 3-2 3-14 8v-7h2v-9h-2v6l-1-11h-10l2 18c0 0-5 1-3 4 0 3 1 25 1 25 0 0 4 12 11 21z m207-12c4 0 19-2 36-3 19-3 22-3 24-6 0 0 4-16 7-22 4-8 5-14 4-14h-41c-16-2-40-3-40-3 0 0-5 3-7 3l-12 15c0 0-5 6-3 8 1 3 3 5 11 9 7 5 17 11 17 11 0 0 1 2 4 2z m-228-3l6-3-1-19-2-1v-4l2-1-2-8-1-3h1v-2h2v-1h-11l1 17c0 0-3 0-3 4 0 2 0 9 1 16 2 1 5 3 7 5z m-14-10h1c0 0 0-6 3-17-1-1-6-15-3-31 5-15 22-32 42-39 20-6 39 10 39 10l6-8 16-3c0 0-9-23 0-45 9-22 40-38 54-38 14 0 33 11 42 19 10 8 17 23 19 30 14-11 30-16 42-10l6-1 39-22 31-11c0 0 0-17 8-26 8-10 28-19 34-19 6 0 22 0 36 19v1c23-28 56-39 89-39 17 0 31-7 35-19 1 0 1 1 1 1-33-67-82-135-154-194-18 87-180 207-349 234-38 6-70 14-96 26-23 65-34 126-39 172 12-3 25-5 39-5 21 0 41 6 59 15z m157-1c0 0 1 0 1-2 1 0 5-1 5-6 0-3-1-6-5-6-3 2-4 2-4 2l-4-2h-1l1 11 3 1c2 1 3 2 4 2z m-3-2c-1-1-2-2-2-3 0-3 0-4 2-7 0 0 4 0 4 6 1 2 1 3 0 4v0h-3z m21-4c0 0 25-6 41-17-23 4-41 4-41 4z m147-3c0 0 20-5 32-31l-31 10-9 18z m-195-8c1 1 3 1 8 0 9-2 26-3 31-7 5-3 8-6 8-6l3-6c3-5 5-6 5-6 0 0 3-4 7-5 5 0 13-2 13-2 0 0 29-27 42-59l15-11-34 11c0 0 5 25-12 44-19 19-42 22-56 22-14-2-35-16-41-25-6 0-22 1-22 1l-3-6-1-1h-2l-9-3c0 0-2-2-8 1-2 2-3 2-6 3-3-1-11-1-17 2-8 3-11 9-13 12h-1v13l22-17h1l6 3c0 0 2 1 2 3 0 1 1 5 1 5l5 4c-2 3-9 16-11 17l3 13c0 0 14-18 17-24l10 3c1 6 4 12 7 14 5 4 10-3 10-3 0 0-5 5-10-1-6-8-7-20 0-23-4 0-6 0-7 7-1 2-1 4-1 6 0-2-2-14 5-15l8-1h3c0 0 9 4 13 7 3 5 3 11 0 16 4 1 25 4 46 0-1 1-3 4-3 4-1 2-9 4-36 10 1 0 1 0 2 0z m-73-19v-12l-3-2v13z m211-5c20 0 47-1 77-7-42 1-75-5-90-21 0 0-10 16-19 27 0 0 12 1 32 1z m-55-9c0 0 20-1 37-23l-9-2-5 2c0 0-14 17-23 23z m169-4l13-2-5-9c-31 0-51-16-51-16v-5c0 0 0 0 0 0 1-1 2-1 3-1l-1-1c1 0 2-1 2-1 8-3 35-14 41-17 0 0-11-1-19-8l-34 11-3 3 13 12c0 1-1 1-2 2-1 0-2 0-2 0 0 2 0 7 2 8 3 3 14 8 20 11 6 2 17 3 19 5 1 1 4 8 4 8z m-193-22l-14-22-3-2-12 10c0 0 12 15 29 14z m8-3c0 0 14-8 14-25l-25 1-1 2z m-44-21l11-11v-3l-14-20c0 0-7 14 3 34z m169-4l3-3 11-5-20-22-21 6z m112-4c48 3 115-49 119-101-23 24-84 0-127 30 8 14 11 30 9 41-1 14-6 17-15 23-2 1-3 1-5 3 6 3 12 4 19 4z m-224-7c0 0-4-17-19-28l-8 25 2 1z m138-2l9-3c0 0-12-14-15-26l-16 4z m-179-6h3l9-23c0 0-17-5-28 4z m243-11v-1l-13-16-1-1-3 4c0 0 11 14 17 14z m8-1c0 0 7-8 4-19h-17v2z m-30-21c2-3 3-6 2-6v-3l-8-17c0 0-2 11 6 26z m34-7c0 0-1-7-6-13-5-6-9-11-9-11l-5 20 2 2z m-29-10h1l7-18c0 0-8-4-16 0l-2 1z m-405-81c170-6 349-98 381-179 2-5 4-12 4-19-34-26-73-51-118-72-144 68-230 169-281 269 5 1 9 1 14 1z" horiz-adv-x="1000" />

<glyph glyph-name="fifa" unicode="&#xe83b;" d="M892 200c-33 0-65 0-96 0-3 0-8-4-9-7-6-15-11-29-15-44-2-9-7-11-16-11-23 0-47 0-71 0-17 0-18 0-12 17 34 89 68 178 101 267 17 43 33 85 49 128 3 9 8 12 17 12 31 0 62 0 93 0 9 0 12-3 13-11 14-104 28-207 42-311 4-29 7-59 11-88 2-12 1-14-12-14-25 0-51 1-77 0-9 0-12 3-12 11-2 17-4 33-6 51z m-8 79c-5 52-9 102-14 152-1 0-2 0-3 0-17-50-34-101-51-152 23 0 45 0 68 0z m-745 196c-4-27-7-52-10-80 5 0 9 0 13 0 24 0 49 0 73 0 13 0 15-2 13-15-2-19-5-39-7-58-1-11-6-15-16-15-25 1-51 0-76 0-8 1-12-1-13-10-5-47-11-94-16-141-2-17-3-18-20-18-22 0-44 0-66 0-14 0-15 0-13 15 5 43 10 86 16 129 9 80 19 160 29 239 1 10 3 20 4 30 1 8 4 11 12 11 79 0 158 0 237 0 9 0 11-4 10-12-3-21-6-42-8-62-1-10-5-13-15-13-45 0-90 0-135 0-4 0-7 0-12 0z m425-80c12 0 24 0 35 0 17 0 35 0 52 0 12 0 13-2 12-15-3-19-6-39-8-58-1-12-6-15-16-15-26 1-51 0-76 0-8 1-11-2-12-10-5-49-12-98-17-147-1-8-4-12-13-12-26 0-51 0-76 0-9 0-11 3-10 12 11 90 22 179 33 269 6 44 11 87 16 130 1 9 5 13 14 13 78 0 156 0 233 0 11 0 14-4 12-13-3-21-5-41-8-61-1-10-5-13-14-13-46 0-91 0-136 0-10 0-13-3-14-12-1-22-5-44-7-68z m-227-257c-13 0-26 0-39 0-8 0-11 4-10 11 8 59 15 117 22 176 9 74 18 148 27 222 2 14 3 15 17 15 24 0 48 0 72 0 9 0 11-3 10-12-15-126-31-251-46-377-1-8-2-16-3-24-1-7-4-11-12-11-13 0-26 0-38 0z" horiz-adv-x="1000" />

<glyph glyph-name="legends-of-runeterra" unicode="&#xe83c;" d="M500 694c-98 0-176-20-230-40-27-10-48-20-62-28-7-4-13-7-16-9-3-1-4-2-5-3 0-1-1-1-1-1h0l-14-8 29-238 12-6c17-8 38-19 38-50 0-16-7-29-14-37-3-4-7-8-9-10-1-1-2-2-3-2l0-1-14-9 29-164 260-82 260 82 29 164-14 9 0 1c-1 0-2 1-3 2-3 2-6 6-9 10-7 9-13 21-13 37 0 31 20 42 37 50l12 6 29 238-13 8 0 0c-1 0-1 1-2 1-1 1-2 2-4 3-4 2-9 5-16 9-15 8-36 18-63 28-54 20-132 40-230 40z m-1-49c91 0 164-18 213-37 24-8 43-18 56-25 2-1 4-2 6-3l-23-181c-21-12-52-37-52-88 0-30 12-53 24-67 4-5 7-9 11-13l-19-104-215-69-217 68-18 105c3 3 7 7 11 12 11 15 24 38 24 68 0 51-32 76-53 88l-22 181c2 1 4 2 5 3 13 7 32 17 57 25 49 19 122 37 212 37z m-114-73l23-43v-346l-19-31h103l-21 31v103l38 31c16-43 48-129 48-133 0-5-4-18-15-33h105c-5 4-16 14-20 24-6 11-48 127-69 184 13 14 40 54 48 90 17 66-3 123-75 123z m86-47h11c16 0 33 0 45-8 15-10 23-35 18-62-10-49-46-78-68-96-2-1-3-3-6-4z" horiz-adv-x="1000" />

<glyph glyph-name="lol" unicode="&#xe83d;" d="M198 497c-27-49-42-105-42-165 0-60 15-116 42-164v329z m302 181c-28 0-55-4-81-10v-54c26 7 53 11 81 11 161 0 291-131 291-292 0-73-26-139-70-190l-8-30-19-66c91 62 150 167 150 285 0 191-154 346-344 346z m-35-484h193 4c33 36 53 86 53 140 0 112-86 204-191 204-21 0-40-4-59-10v-334z m-77 531h-196l37-77v-596l-37-77h450l41 146h-295v604z" horiz-adv-x="1000" />

<glyph glyph-name="valorant" unicode="&#xe83e;" d="M870 631c-1 0-3 0-4-1l-334-367c-1-1-1-3 0-4 1-2 2-3 4-3h241c7 0 13 3 17 7l76 84c3 3 5 7 5 12v268c0 2-2 4-5 4z m-741 0c-2 0-4-2-4-4v-281c0-5 2-9 4-13l227-288c4-5 9-7 15-7h218c4 0 6 4 4 7l-460 585c-1 1-2 1-4 1v0z" horiz-adv-x="1000" />

<glyph glyph-name="discord" unicode="&#xe83f;" d="M745 694h-490c-37 0-67-31-67-70v-458c0-38 30-69 67-69h423l-17 62 42-40 39-38 71-64v607c0 39-31 70-68 70z m-152-442c0 0-12 14-22 27 43 13 60 40 60 40-14-9-27-15-38-20-16-7-32-11-47-14-32-6-61-5-85 0-19 4-35 9-48 15-8 3-16 7-24 11-1 1-2 1-3 2-1 0-1 1-2 1-5 3-9 6-9 6 0 0 16-27 58-40-10-13-22-28-22-28-73 2-100 51-100 51 0 109 47 197 47 197 47 37 92 36 92 36l3-4c-59-18-86-44-86-44 0 0 7 4 19 9 35 16 63 21 75 22 2 0 3 0 5 0 20 3 43 4 66 1 32-4 65-13 99-32 0 0-26 25-82 43l5 5c0 0 45 1 92-36 0 0 47-88 47-197 0 0-28-49-100-51z m-152 158c-19 0-34-17-34-38 0-20 15-37 34-37 18 0 33 17 33 37 1 21-15 38-33 38z m119 0c-18 0-33-17-33-38 0-20 15-37 33-37 19 0 34 17 34 37 0 21-15 38-34 38z" horiz-adv-x="1000" />

<glyph glyph-name="twitch" unicode="&#xe840;" d="M230 663l-42-113v-460h152v-83h86l81 83h123l167 171v402h-567z m506-379l-95-99h-153l-81-84v84h-128v415h457v-316z m-91 207v-172h-61v172h61z m-153 0v-172h-61v172h61z" horiz-adv-x="1000" />

<glyph glyph-name="brawl-stars" unicode="&#xe841;" d="M501 850c-8 0-16-3-23-10l-7-7-157-162-218-54-11-2c-17-4-28-23-23-40l3-10 64-215-63-216-3-10c-5-17 5-35 23-39l10-3 219-53 156-161 7-8c13-13 33-13 46 0l7 8 155 162 219 54 10 2c18 4 28 23 23 40l-3 9-64 215 64 215 3 10c5 18-6 36-23 40l-11 3-219 53-154 161-7 8c-6 7-14 10-23 10z m0-208c101 0 189-53 239-132 4-5 7-11 10-16 22-40 35-87 35-136v-2c-2-156-128-281-284-281-156 0-283 126-284 282v1c0 49 13 95 34 135 4 7 8 13 12 20 51 78 139 129 238 129z m-1-59c-127 0-231-104-231-231 0-127 104-231 231-231 127 0 231 104 231 231 0 128-104 231-231 231z m0-31c100 0 183-74 196-170 2-18 1-36-3-54-13-52-46-85-92-103v-35c0-6-5-11-11-11h-180c-6 0-11 5-11 11v33c-46 18-79 53-92 110-4 14-5 30-3 44 12 99 95 175 196 175z m1-250l-28-49h56z m90 80c-31 0-57-26-57-59 0-33 26-59 57-59 32 0 57 26 57 59 0 33-25 59-57 59z m-178 0c-31 0-57-26-57-59 0-33 26-59 57-59 32 0 57 26 57 59 0 33-25 59-57 59z m39 34c-2 0-4-1-5-2l-9-10c-3-2-3-7 0-9l34-35c3-3 8-3 10 0l10 9c2 3 2 7 0 10l-35 35c-1 1-3 2-5 2z m98 0c-2 0-4-1-5-2l-35-35c-3-3-3-7 0-10l9-9c3-3 8-3 10 0l35 35c3 2 3 7 0 9l-9 10c-2 1-4 2-5 2z m-109 102c-15 0-33-5-49-15-32-21-48-55-34-76 13-22 51-22 83-2 33 21 48 55 35 77-7 10-20 16-35 16z" horiz-adv-x="1000" />

<glyph glyph-name="clash-royale" unicode="&#xe842;" d="M922 409c0-94-1-188 0-282 1-20-6-32-24-43-125-74-251-150-376-226-16-10-27-11-43-1-126 77-252 153-379 228-17 10-22 22-22 41 0 190 0 380-1 569 0 23 7 29 29 29 71-2 142 2 213-2 33-2 50 20 70 36 36 27 69 57 103 86 13 11 21 4 30-3 42-35 84-69 125-105 12-10 24-13 39-13 69 0 139-1 209 0 21 1 28-5 28-27-2-95-1-191-1-287z m-81-17c0 74 0 148 1 222 0 18-6 24-24 23-56 0-112 0-169 0-11 0-20 1-29 9-33 29-67 56-100 85-12 10-19 8-30-1-30-26-61-49-90-75-15-13-30-18-49-18-56 1-112 0-169 1-17 0-24-4-24-23 1-147 1-295 1-443 0-14 5-23 17-30 102-60 205-120 306-181 12-7 21-9 33-2 102 60 204 121 306 181 15 9 21 20 20 37 0 71 0 143 0 215z m-520-216c-11 50-18 97-7 145 3 14 13 19 24 24 29 16 62 21 93 22 69 2 139 8 208-7 83-18 73-24 78-104 1-18-5-36-5-55-1-11-3-22-20-11-29 18-63 20-95 21-77 3-154 8-230-9-16-4-33-7-46-26z m192 164c-9-2-15-11-21-18-32-31-33-32-1-62 8-8 15-25 27-17 17 13 31 31 46 47 3 3-45 50-51 50z m206 177c6-45 4-90-3-134-100 39-204 28-308 22-28-1-55-7-81-17-15-6-16-1-19 13-7 39-3 77-5 121 12-19 13-35 17-51 4-15 10-17 27-14 48 6 65 40 75 81 6 26 17 38 48 41 37 3 71-2 107-3 11 0 16-7 19-15 4-11 9-22 11-33 9-40 31-63 72-71 19-4 24 0 28 16 3 15 8 29 12 44z" horiz-adv-x="1000" />

<glyph glyph-name="tft" unicode="&#xe843;" d="M694 347c-34 21-24 6-9-7 61-57 100-113 115-162 10-32 1-51-13-23-22 42-51 74-69 88-17 14-17 8-9-4 35-46 55-92 35-128-34-59-170-44-303 33-170 98-275 232-237 301 17 30 63 42 116 38 12-1 11 2 1 5-64 17-140 1-167-46-49-85 65-243 255-352 41-24 93-49 155-70 38-13 32-28-32-15-69 13-155 49-235 96-24 14-27 8-9-9 16-15 46-39 83-61 189-113 424-142 492-25 60 105-48 267-169 341z m-606 411l101-176h211v-348c54-43 142-88 202-92v440h211l102 176z" horiz-adv-x="1000" />

<glyph glyph-name="overwatch-2" unicode="&#xe844;" d="M363 610c63 0 123-23 170-64l74 73c-139 125-349 125-487 0l73-73c47 41 107 64 170 64z m266-12l-74-74c74-82 88-203 34-300l-145 140-66 158v-238l144-138c-93-73-225-73-318 0l144 138v238l-66-158-145-140c-54 97-41 217 34 300l-74 74c-136-147-128-377 19-513s376-129 513 18c129 139 129 355 0 495z m340-89h-189c-21 55-52 105-93 148l-33-34c144-153 144-392 0-545l34-34c40 43 71 93 92 148h189c17-1 31 13 31 30v256c0 17-14 31-31 31z m-161-103c0 10 2 20 7 28 5 9 13 16 22 19 3 0 5 0 7 0h76c7 0 13-2 18-6l-38-36h-49v-25h-43v20z m152-126c1-12-4-23-13-29-4-3-9-5-14-5h-130v27c0 10 3 19 9 26 4 4 8 8 12 12l128 120c1-3 2-6 2-9 1-3 1-5 0-8v-17c0-8-3-16-8-23-4-5-9-9-13-13l-75-71h102v-10z m-328-232c1 0 2 2 2 3 0 0 0 1 0 1 0 1-1 2-3 2h-4v-10h1v4h3l2-4h1l-2 4z m-4 1v4h3c1 0 2-1 2-2 0-1-1-2-2-2h-3z m2 10c-5 0-10-4-10-10v0c0-6 5-10 10-9 6 0 10 4 10 9 0 6-4 10-10 10z m0-18c-4 0-8 4-8 8 0 0 0 0 0 0 0 5 4 9 8 9 5 0 9-4 9-9 0 0 0 0 0 0 0-5-4-8-9-8z" horiz-adv-x="1000" />

<glyph glyph-name="whatsapp" unicode="&#xe846;" d="M501 788c-241 0-437-196-438-437 0-77 21-152 59-219l-59-220 228 55c64-35 136-54 209-54h1c240 0 436 196 437 437 0 117-46 227-128 309-83 83-192 129-309 129z m0-88c93 0 181-36 247-102 66-66 102-154 102-248 0-192-157-349-350-349-58 0-116 15-167 42l-29 17-33-8-86-21 21 79 10 35-18 31c-31 53-47 113-47 175 0 192 157 349 350 349z m-155-148c-7 0-19-2-29-13-10-11-38-38-38-91 0-54 39-106 44-113 6-8 76-121 187-165 92-36 111-29 131-27 20 1 64 26 73 52 10 25 10 47 7 51-3 5-10 8-21 13-11 6-65 32-75 36-10 3-17 5-24-6-8-11-28-35-35-43-6-7-13-8-24-2-10 5-46 17-87 54-33 29-55 65-61 75-6 11-1 17 5 23 5 5 11 13 16 19 5 6 7 11 11 18 4 7 2 14-1 19-3 6-24 60-34 81-8 18-16 19-24 19-7 0-14 0-21 0z" horiz-adv-x="1000" />

<glyph glyph-name="cs-go" unicode="&#xe847;" d="M424 409c-3 1-6 2-9 2s-3 2-3 5a142 142 0 0 0 1 14 196 196 0 0 1 2 21c0 3 1 4 4 4 3 0 6 1 9 1 4 1 4 1 4 5a104 104 0 0 0-1 19 57 57 0 0 0 13 34 29 29 0 0 0 21 11 11 11 0 0 0 8-2c0-1 1-2 2-1a3 3 0 0 1 1 4 33 33 0 0 0 0 24c5 14 16 21 30 21a27 27 0 0 0 14-4 83 83 0 0 1 11-6 4 4 0 0 0 3-4 8 8 0 0 1 0-4 36 36 0 0 0 3-16c-1-6-2-8-8-10-2 0-3-1-3-4a24 24 0 0 0 1-5c0-2 1-3 3-3a41 41 0 0 1 7 2 21 21 0 0 0 7 1c1 0 2 1 2 3 1 2 1 5 2 7 0 0 0 1 1 1 0 0 0 0 1-1a12 12 0 0 0 0-4c0-1 0-2 1-2 3 0 5-4 8-4q34 0 68 0c4 0 9 0 14-1 1 0 2 0 2-1 0-1 0-2 1-2s1 1 1 2c0 3 0 6 0 10 0 0 0 1 0 2 0 1 1 1 2 2s2-1 2-2c0-3 0-6 0-9 0-3 0-3 4-3 1 0 1-1 1-3 1-4 1-4 6-4h14a7 7 0 0 1 6 1 2 2 0 0 0 2 0c3-1 7-1 11-1 2 0 3 0 3-3s0-3-3-3a44 44 0 0 1-10 0 4 4 0 0 0-2 0c-9 2-19 1-28 0a14 14 0 0 0-7 0c-1 1-2 1-2-1 0-3-2-3-4-3-10 0-20 0-29 0a9 9 0 0 1-9-5 18 18 0 0 0-6-6 5 5 0 0 1-3-6c1-5 2-9 3-14 1-4 1-4-3-5a5 5 0 0 1-4-4c-1-4-1-7-2-10a15 15 0 0 0-7-11 47 47 0 0 1-5-4 13 13 0 0 0-8-4c-1 0-1-2-2-2-1 1-1 2-3 3-12 1-22 7-32 13-2 1-3 1-3-1a2 2 0 0 0 0-1 15 15 0 0 1-1-5c0-2 2-2 4-3a12 12 0 0 0 4-7c1-7 0-13-1-20 0-4 0-7 0-11a26 26 0 0 0-6-15c-1-2-4-2-6-1-5 1-7 0-6-5a26 26 0 0 1 7-15 120 120 0 0 0 22-37c2-6 4-12 7-17a6 6 0 0 1 3-4c0-1 1-1 1-2 1-6 4-12 3-20-1-10-2-21-3-32a31 31 0 0 1 0-10 22 22 0 0 0-2-16c-1-3-1-6-1-9a68 68 0 0 1 1-13 14 14 0 0 1 3-7c2-2 3-3 4-5a25 25 0 0 1 14-10 29 29 0 0 0 7-3 9 9 0 0 0 2-10 3 3 0 0 0-2-1c-12-1-25-3-36 2a29 29 0 0 1-14 0 14 14 0 0 0-10 2 3 3 0 0 0-1 4c2 7 2 14 5 21a19 19 0 0 1 1 9c-1 5-1 9-1 14a3 3 0 0 1-1 2c-4 6-4 13-5 20-1 6-1 12-2 19a13 13 0 0 0 2 9c3 4 3 15 0 19a3 3 0 0 1-3 1 11 11 0 0 0-13 5c-5 9-11 17-17 26a4 4 0 0 1-4 3c-5-1-7 2-9 5-1 2-1 4-2 4-2 0-2-2-3-4a13 13 0 0 0-3-4 26 26 0 0 1-6-10c-3-8-7-15-7-24a11 11 0 0 0-6-9 7 7 0 0 1-3-4 23 23 0 0 0-6-8 16 16 0 0 1-5-14 23 23 0 0 0-2-12q-3-6-5-12a81 81 0 0 1-5-12c-1-4-3-8-7-10a3 3 0 0 1-2-1c-5-11-8-21-5-33 0-4 2-7 2-11-1-3-1-4-4-4a107 107 0 0 0-22 0c-5 1-5 1-6 6a27 27 0 0 0 0 12q4 16 8 32a9 9 0 0 1 0 5 22 22 0 0 0 1 16 23 23 0 0 0 2 5 20 20 0 0 1 4 11c1 8 5 14 8 21a78 78 0 0 0 5 7 79 79 0 0 1 7 14 5 5 0 0 1 1 4c-2 6-1 12 0 18 1 8 2 16 4 23 0 1 0 2-1 3-2 3-2 7-2 11a2 2 0 0 0 0 1 5 5 0 0 1-1 6c-2 2 2 10 5 11 2 0 2 2 2 3 0 8-2 16-3 23a64 64 0 0 0 0 14c0 0 0 2 1 1a1 1 0 0 1 1 0c0 4 4 4 6 5z m152 80c-1 1 0 4-2 5a6 6 0 0 1-6-1c-1-1-2-2-1-3s0-2-1-3l-6-3a3 3 0 0 1-1-4 51 51 0 0 0 3-6c1-2 2-2 4-1 4 4 6 10 10 14 0 1 0 1 0 2z m-323-228h60c4 0 4 0 4 3 0 7 0 13 0 20 0 2-1 3-3 3q-46 0-91 0a35 35 0 0 0-35 36c0 7 0 15 0 22a35 35 0 0 0 34 31h96a34 34 0 0 0 33-29c0-2-1-3-3-3-6 0-13 0-20 0q-50 0-100 0c-3 0-3 0-3-4 0-6 0-12 0-17 0-3 0-4 3-4 30 0 60 0 89 0a36 36 0 0 0 31-15 34 34 0 0 0 6-19 187 187 0 0 0-1-27c-1-13-12-26-27-29a23 23 0 0 0-5 0c-32-1-63-1-95-1-12 0-23 4-31 15a36 36 0 0 0-6 15c-1 2 0 3 3 3q30 0 61 0z m450 88h-63c-4 0-4 0-4-4q0-41 0-82c0-2 1-3 4-3q47 0 95 0c3 0 4 0 4 3-1 8 0 17-1 25 0 2 0 3-3 3-15 0-29 0-44 0-17 0-26 12-30 23 0 2 0 3 2 3h104c4 0 4 0 4-4q0-25 0-50a33 33 0 0 0-27-32 26 26 0 0 0-5-1c-34 0-68 1-102 0-13 0-30 12-32 29a119 119 0 0 0-1 13c0 22 0 44 0 65a63 63 0 0 0 1 14 34 34 0 0 0 33 27q50 0 99 0a35 35 0 0 0 33-26c1-3 0-3-3-3h-64z m176-119c-15 0-31 0-47 0-12 0-21 6-28 16a35 35 0 0 0-5 20c0 25 0 50 0 76a36 36 0 0 0 8 24 34 34 0 0 0 26 12c31 0 62 0 93 0a35 35 0 0 0 34-31 71 71 0 0 0 0-7q0-37 0-75a35 35 0 0 0-14-28 30 30 0 0 0-19-7c-16 0-32 0-48 0z m0 28h0c15 0 30 0 45 0 3 0 3 0 3 3q0 43 0 85c0 3 0 4-3 4q-45 0-89 0c-3 0-4-1-4-4q0-42 0-85c0-3 1-3 4-3 15 0 29 0 44 0z m-779 85h-56c-3 0-3 0-3-4v-73c0-4 0-4 4-4 23 1 46 1 70 1 14 0 29 0 44 0 2 0 3-1 2-4a37 37 0 0 0-29-30 20 20 0 0 0-3 0c-30-1-61-1-91-1-19 0-34 12-37 30a41 41 0 0 0-1 7c0 25 0 49 0 73 0 10 3 20 10 27a31 31 0 0 0 23 11c32 0 64 0 95 0 16 0 31-13 33-29 1-3 0-4-2-4-2 0-4 0-6 0z m892 19c1 3 2 6 3 8 0 2 1 3 3 3s2-2 2-3a32 32 0 0 0 0-10 4 4 0 0 0-2-3 56 56 0 0 0-1 12c-2-4-3-6-4-9 0-1-1-2-2-2s-1 1-1 2a53 53 0 0 1-4 8c0-2 0-5 0-8 0-1 0-2-1-2s-1 1-1 2c0 4 0 7-1 11 0 1 0 2 2 2s2 0 3-1c1-3 2-5 3-8a20 20 0 0 1 1-2z m-11 11a11 11 0 0 0-1-1c-4-1-4-1-4-6 0-2 0-4 0-6 0 0 0-1-1-1s-2 0-2 1c0 3 0 6 0 9 0 1 0 3-2 2-1 0-1 0-2 1s1 1 2 1a37 37 0 0 0 10 0z" horiz-adv-x="1000" />

<glyph glyph-name="sim-racing" unicode="&#xe848;" d="M1000 551c-17-3-30 1-43 12-202 168-509 62-561-200-36-183 82-362 263-403 7-2 15-3 23-5v-19c-130 15-278 121-308 301-28 171 63 327 210 394 150 69 321 25 416-80z m-866-174c24-7 48-4 71 2 13 3 26 8 40 12 3-34 5-68 7-104 39 16 71 39 108 61-8-71 1-136 28-200-5-4-9-7-14-10s-8-5-15-9v109c-33-20-64-42-100-57-2 36-4 70-7 105-35-12-69-24-106-14-4 33-8 65-12 97a41 41 0 0 0 0 9z m106 124a197 197 0 0 0-121-20c2-18 4-33 6-49 3-18 6-37 9-55l0 1c-22 2-42 12-59 25-18 15-34 33-51 50-3 4-5 10-6 16-6 31-12 63-18 97 33-39 68-72 119-84-4 35-8 69-12 101 22 1 43 0 64 4 20 3 40 10 61 16 3-35 5-69 8-103z m358 156c-2-3-3-7-5-8-20-11-41-20-60-32s-37-27-57-41c1 20 2 39 3 61-43-17-79-43-119-67 0 4-1 8-1 11q0 43 0 87c0 5 0 10 6 14 38 22 75 44 113 66a47 47 0 0 0 7 2c-2-37-4-74-6-111 16 5 30 10 45 14 22 5 44 8 67 3a24 24 0 0 1 7 1z m61-595v-70c-43-1-146 58-186 128l60 34c34-42 77-72 126-92z m-140 111l-57-34c-41 56-56 162-35 230l50-10c-2-33-3-65 4-97 7-31 20-60 38-89z m-160 285c-24-15-48-30-73-44-12-7-25-14-40-22-2 38-4 73-6 109l0-1c19 10 40 19 59 30 19 11 38 24 59 37v-110z m-323-522c67 4 135 9 202 14 49 3 98 6 146 9q74 5 147 10a41 41 0 0 0 23-4c17-9 35-16 53-24 3-2 7-3 13-6h-584z m522 624l21-32c-46-39-80-86-96-147l-50 10c13 63 73 140 125 169z m40 97c3 23 6 46 9 68 2 15 4 29 6 44 55-13 92-48 126-91-18-2-35-2-51-5-25-4-49-11-73-17-6-1-12-4-17 1z m0-116l-21 31c76 51 201 59 282 18-93 18-180 4-261-49z m259-62q-25-36-50-73-28-40-55-80c-4-6-7-11-4-19a20 20 0 0 0-10-26 21 21 0 0 0-27 9c-6 10-3 20 8 27a84 84 0 0 1 14 14q59 72 117 144c2 2 3 4 5 6z m-498-22l46 31 2-2a448 448 0 0 1-48-132c0 17 0 34 0 51 0 17 0 35 0 53z" horiz-adv-x="1000" />

<glyph glyph-name="download" unicode="&#xe84a;" d="M94 225c17 0 31-14 31-31v-31c0-69 56-125 125-125h500c69 0 125 56 125 125v31c0 17 14 31 31 31 18 0 32-14 32-31v-31c0-104-84-188-188-188h-500c-104 0-187 84-187 188v31c0 17 14 31 31 31z m428-53c-12-12-32-12-44 0l-208 208c-13 12-13 32 0 44 12 12 32 12 44 0l186-186 186 186c12 12 32 12 44 0 13-12 13-32 0-44l-208-208z m-22 1c-17 0-31 14-31 31l0 490c0 17 14 31 31 31 17 0 31-14 31-31l0-490c0-17-14-31-31-31z" horiz-adv-x="1000" />

<glyph glyph-name="shop" unicode="&#xe84b;" d="M198 788c-12 0-23-8-28-19l-74-219c-1-4-2-8-2-12v-47c0-45 15-88 44-121 12-12 25-23 39-31 0-1 0-3 0-4v-360h-23c-16 0-29-14-29-31 0-18 13-32 29-32h54 0 1 166c0 0 0 0 0 0 0 0 0 0 1 0h249c0 0 0 0 0 0 0 0 0 0 1 0h165 1 0 54c16 0 29 14 29 32 0 17-13 31-29 31h-23v360c0 1 0 3 0 4 14 8 27 19 39 31 29 33 44 76 44 121v47c0 4-1 8-2 12l-94 219c-5 11-16 19-28 19z m21-63h543l65-156h-654z m-63-219h188v-15c0-30-11-59-29-79-18-20-41-31-65-31-24 0-47 11-65 31-18 20-29 49-29 79z m250 0h188v-15c0-30-11-59-29-79-18-20-41-31-65-31-24 0-47 11-65 31-18 20-29 49-29 79z m250 0h188v-15c0-30-11-59-29-79-18-20-41-31-65-31-24 0-47 11-65 31-18 20-29 49-29 79z m-281-119c4-5 9-11 13-17 29-32 69-51 112-51 43 0 83 19 112 51 5 6 9 12 13 17 4-5 9-11 13-17 29-32 69-51 112-51 4 0 7 0 11 0v-344h-105v104c0 31-12 60-33 81-22 22-51 34-81 34h-84c-30 0-59-12-81-34-21-21-33-50-33-81v-104h-104v344c3 0 7 0 10 0 43 0 83 19 112 51 5 6 9 12 13 17z m83-256h84c14 0 27-5 37-15 9-10 15-23 15-37v-104h-188v104c0 14 6 27 16 37 9 10 23 15 36 15z" horiz-adv-x="1000" />

<glyph glyph-name="picture" unicode="&#xe84c;" d="M281 788c-121 0-218-98-218-219v-438c0-121 97-219 218-219h438c121 0 219 98 219 219v155c0 1 0 2 0 3v280c0 121-98 219-219 219z m0-63h438c86 0 156-70 156-156v-186c-24 25-54 42-87 42-42 0-77-26-104-63l-37-53-151 157-1 0c-33 33-74 53-118 53-43 0-84-20-118-53l-134-139v242c0 86 70 156 156 156z m407-156c-18 0-32-14-32-31 0-18 14-32 32-32h0c17 0 31 14 31 32 0 17-14 31-31 31z m-311-112c24 0 49-11 74-35l319-331c12-12 32-12 45 0 12 12 12 31 0 44l-124 129 43 61c21 29 40 38 54 38 14 0 33-9 53-38l34-47v-147c0-86-70-156-156-156h-438c-86 0-156 70-156 156v107c1 0 2 1 3 2l176 182c24 24 50 35 73 35z" horiz-adv-x="1000" />

<glyph glyph-name="trash" unicode="&#xe84d;" d="M500 788c-104 0-187-84-187-188h-157c-17 0-31-14-31-31 0-17 14-31 31-31h32v-469c0-87 70-157 156-157h312c87 0 157 70 157 157v469h31c17 0 31 14 31 31 0 17-14 31-31 31h-156c0 104-84 188-188 188z m0-63c69 0 125-56 125-125h-250c0 69 56 125 125 125z m-250-187h500v-469c0-52-42-94-94-94h-312c-52 0-94 42-94 94z m156-125c-17 0-31-14-31-32v-250c0-17 14-31 31-31 18 0 32 14 32 31v250c0 18-14 32-32 32z m188 0c-17 0-31-14-31-32v-250c0-17 14-31 31-31 17 0 31 14 31 31v250c0 18-14 32-31 32z" horiz-adv-x="1000" />

<glyph glyph-name="publico" unicode="&#xe84e;" d="M281 694c-86 0-156-70-156-156 0-87 70-157 156-157 18 0 32 14 32 32 0 17-14 31-32 31-51 0-93 42-93 94 0 51 42 93 93 93 18 0 32 14 32 32 0 17-14 31-32 31z m219 0c-86 0-156-70-156-156 0-87 70-157 156-157 86 0 156 70 156 157 0 86-70 156-156 156z m219 0c-17 0-31-14-31-31 0-18 14-32 31-32 52 0 94-42 94-93 0-52-42-94-94-94-17 0-31-14-31-31 0-18 14-32 31-32 86 0 156 70 156 157 0 86-70 156-156 156z m-219-63c52 0 94-42 94-93 0-52-42-94-94-94-52 0-94 42-94 94 0 51 42 93 94 93z m-312-312c-4 0-8-1-12-2-68-24-113-88-113-160v-119c0-18 14-32 31-32 17 0 31 14 31 32v119c0 46 29 86 72 101 13 4 22 16 22 30 0 17-14 31-31 31z m234 0c-121 0-219-98-219-219 0-52 42-94 94-94h406c52 0 94 42 94 94 0 121-98 219-219 219z m391 0c-18 0-32-14-32-31 0-14 9-26 22-30 43-15 72-55 72-101v-119c0-18 14-32 31-32 18 0 32 14 32 32v119c0 72-46 136-114 160-4 1-8 2-11 2z m-391-63h156c86 0 156-70 156-156 0-17-14-31-31-31h-406c-17 0-31 14-31 31 0 86 70 156 156 156z" horiz-adv-x="1000" />

<glyph glyph-name="right" unicode="&#xe84f;" d="M375 647c-12 0-24-5-33-14-18-18-18-48 0-66l217-217-217-217c-18-18-18-48 0-66 18-18 48-18 66 0l250 250c19 18 19 48 0 66l-250 250c-9 9-21 14-33 14z" horiz-adv-x="1000" />

<glyph glyph-name="sponsors" unicode="&#xe850;" d="M677 756c-65 2-128-21-178-63-47 38-105 59-165 59-61 0-119-20-166-57-47-38-80-90-94-148-13-59-6-121 20-175l-5-4c-17-18-27-42-27-66 0-25 10-49 27-66 17-17 39-26 63-27 0-24 10-46 27-62 17-17 39-27 62-28 2-22 12-42 28-58 16-17 39-26 62-27 1-24 11-46 28-63 8-8 19-15 30-20 11-5 23-7 36-7 12 0 24 2 35 7 12 5 22 12 31 20l51 52c15-10 32-16 50-17 17-1 35 3 50 12 16 8 29 21 37 36 9 15 14 33 13 50 21 3 40 12 55 27 16 17 26 39 27 62 24 1 46 11 63 28 11 11 19 25 23 39 5 15 6 31 3 46 24 26 44 55 56 88 13 33 19 68 18 104-1 35-9 69-23 102-15 32-36 61-62 84-47 45-110 71-175 72z m-343-61c45-2 87-18 122-46l-112-112c-9-8-16-19-20-30-5-12-8-24-8-37 0-12 3-24 8-36 4-11 11-22 20-31 18-17 42-27 67-27 25 0 49 10 67 27l113 113 202-202c3-3 6-7 7-11 2-4 3-8 3-12 0-5-1-9-3-13-1-4-4-8-7-11-6-5-14-9-23-9-8 0-16 4-22 9l-135 136c-6 6-14 9-22 9-9 0-16-3-22-9-6-6-10-14-10-22 0-9 4-17 10-23l58-58c2-3 4-5 6-7l68-67c6-6 10-15 10-23 0-9-4-17-10-23-2-3-6-5-10-7-4-2-8-3-12-3-5 0-9 1-13 3-4 2-7 4-10 7l-135 133c-3 3-6 5-10 7-4 2-8 2-12 2-4 0-8 0-12-2-4-2-7-4-10-7-3-3-5-6-7-10-1-4-2-8-2-12 0-4 1-8 2-12 2-4 4-7 7-10l72-73 70-69c6-6 9-15 9-23 0-9-3-17-9-23-7-6-15-9-24-9-8 0-16 3-23 9 3 13 2 27-1 40-4 13-10 25-18 35-9 10-19 19-31 25-12 6-25 9-39 9-1 24-11 46-27 63-17 16-39 26-62 26-2 23-12 43-28 59-17 16-39 26-62 27-1 23-11 46-28 62-17 18-41 27-66 27-25 0-48-9-66-27l-5-6c-16 42-18 88-5 130 13 43 39 80 76 106 36 26 80 39 124 38z m324-8c52 2 102-16 141-50 39-34 63-81 69-132 5-50-9-100-38-140l0 0-3-3c1 1 2 2 3 3l-195 195c-12 12-28 19-44 19-17 0-32-7-44-19l-110-112c-3-4-7-6-11-8-4-1-8-2-13-2-4 0-8 1-12 2-4 2-8 4-11 8-6 6-9 14-9 22 0 9 3 17 9 23l132 134c36 36 85 58 136 60z m-443-294c4 0 8-1 12-2 4-2 7-4 10-7 5-6 8-13 8-20 0-8-3-15-8-20l-4-5-57-60c-7-4-14-6-22-5-7 2-14 6-19 11-5 6-7 14-7 21 0 8 2 15 7 21l58 57c3 3 6 5 10 7 4 1 8 2 12 2z m87-94c7 0 14-3 20-7 5-6 8-13 8-20 0-8-3-15-8-21l-56-58c-1-1-2-3-4-4-6-5-13-9-21-9-8 0-15 4-21 9-5 6-7 13-7 20 0 8 2 15 7 20l5 5 57 58c6 4 13 7 20 7z m89-83c8 0 16-4 22-10 5-6 8-14 8-23 0-8-4-16-10-21l-56-57c-3-2-6-5-10-6-4-2-8-3-12-3-4 0-8 1-12 3-4 1-8 4-10 6-6 6-9 13-9 20-1 8 1 15 6 21l57 57 4 5c6 5 14 8 22 8z m89-87c9 0 17-3 23-9 5-6 9-14 9-22 0-9-4-17-9-22l-58-58c-3-3-6-5-10-7-4-1-8-2-12-2-4 0-8 1-12 2-4 2-7 4-10 7-6 6-9 14-9 22 0 8 3 16 9 22l57 58c6 6 14 9 22 9z" horiz-adv-x="1000" />

<glyph glyph-name="time" unicode="&#xe851;" d="M500 788c-242 0-437-196-437-438 0-242 195-438 437-438 242 0 438 196 438 438 0 242-196 438-438 438z m0-63c207 0 375-168 375-375 0-207-168-375-375-375-207 0-375 168-375 375 0 207 168 375 375 375z m0-135c-17 0-31-14-31-32v-208c0-8 3-16 9-22l125-125c12-12 32-12 44 0 12 12 12 32 0 44l-116 116v195c0 18-14 32-31 32z" horiz-adv-x="1000" />

<glyph glyph-name="tren" unicode="&#xe852;" d="M94 663c-17 0-31-14-31-32v-375c0-51 42-93 93-93h641c78 0 141 63 141 140 0 199-161 360-360 360h-359z m31-63h63v-94c0-86 69-156 156-156l527 0c3-15 4-31 4-47 0-43-35-78-78-78h-641c-17 0-31 14-31 31z m125 0h125v-187 0h-31c-52 0-94 42-94 93z m188 0h140c5 0 11 0 16 0v-187l-156 0v0z m218-10c91-25 164-91 198-177h-198z m-562-490c-17 0-31-14-31-31 0-17 14-31 31-31h812c18 0 32 14 32 31 0 17-14 31-32 31z" horiz-adv-x="1000" />

<glyph glyph-name="search" unicode="&#xe853;" d="M422 788c-199 0-359-161-359-360 0-198 160-359 359-359 88 0 168 32 231 84l231-231c12-13 32-13 44 0 13 12 13 32 0 44l-231 231c53 63 84 143 84 231 0 199-161 360-359 360z m0-63c164 0 297-133 297-297 0-164-133-297-297-297-164 0-297 133-297 297 0 164 133 297 297 297z" horiz-adv-x="1000" />

<glyph glyph-name="academy" unicode="&#xe854;" d="M500 725c-5 0-10-1-14-3l-407-213c-10-5-16-16-16-27-1-12 6-22 16-28l109-60v-263c0-51 39-91 90-116 28-14 67-24 106-30 39-7 81-10 116-10 35 0 77 3 116 10 39 6 78 16 106 30 51 25 91 65 91 116v263l62 34v-172c0-17 14-31 31-31 18 0 32 14 32 31v225c0 12-7 23-17 28l-406 213c-5 2-10 3-15 3z m0-66l340-178-340-189-340 189z m-250-300l235-130c9-5 21-5 30 0l235 130v-228c0-15-13-39-56-60-19-10-51-18-88-24-36-6-75-9-106-9-31 0-70 3-106 9-37 6-69 14-88 24-43 21-56 45-56 60z" horiz-adv-x="1000" />

<glyph glyph-name="zoom-out" unicode="&#xe855;" d="M422 788c-199 0-359-161-359-360 0-198 160-359 359-359 88 0 168 32 231 84l231-231c12-13 32-13 44 0 13 12 13 32 0 44l-231 231c53 63 84 143 84 231 0 199-161 360-359 360z m0-63c164 0 297-133 297-297 0-164-133-297-297-297-164 0-297 133-297 297 0 164 133 297 297 297z m-125-266c-17 0-31-14-31-31 0-17 14-31 31-31h250c17 0 31 14 31 31 0 17-14 31-31 31z" horiz-adv-x="1000" />

<glyph glyph-name="speakers" unicode="&#xe856;" d="M500 694c-86 0-156-70-156-156 0-87 70-157 156-157 86 0 156 70 156 157 0 86-70 156-156 156z m0-63c52 0 94-42 94-93 0-52-42-94-94-94-52 0-94 42-94 94 0 51 42 93 94 93z m-281-281c-7 0-13-2-18-5-67-45-107-121-107-201v-75c-17 0-31-14-31-31 0-18 14-32 31-32h156 500 156c18 0 32 14 32 32 0 17-14 31-32 31v75c0 80-40 156-107 201-5 3-11 5-18 5-17 0-31-14-31-31 0-11 6-21 14-26 50-34 80-90 80-149v-75h-63c0 121-98 250-218 250h-125c-121 0-219-129-219-250h-63v75c0 59 30 115 80 149 8 5 14 15 14 26 0 17-14 31-31 31z m219-94h125c86 0 156-101 156-187h-438c0 86 70 187 157 187z" horiz-adv-x="1000" />

<glyph glyph-name="check-2" unicode="&#xe857;" d="M889 663c-13 0-25-5-34-15l-483-489-224 257c-18 20-49 22-69 4-20-18-22-49-4-70l259-296c9-10 22-16 35-16 13-1 26 4 36 14l518 526c19 20 19 51 0 70-9 10-22 15-34 15z" horiz-adv-x="1000" />

<glyph glyph-name="share-1" unicode="&#xe858;" d="M771 788c-92 0-167-75-167-167 0-15 2-30 6-44l-247-127c-31 40-79 67-134 67-92 0-166-75-166-167 0-92 74-167 166-167 55 0 103 27 134 67l247-127c-4-14-6-29-6-44 0-92 75-167 167-167 92 0 167 75 167 167 0 92-75 167-167 167-55 0-103-26-134-67l-247 127c4 14 6 29 6 44 0 15-2 30-6 44l247 127c31-41 79-67 134-67 92 0 167 75 167 167 0 92-75 167-167 167z m0-63c57 0 104-47 104-104 0-58-47-104-104-104-41 0-76 23-93 56 0 1-1 3-1 4 0 0-1 1-1 1-6 13-9 28-9 43 0 57 46 104 104 104z m-542-271c40 0 75-23 93-56 0-1 1-2 1-4 1 0 1-1 1-2 6-13 9-27 9-42 0-15-3-29-9-42 0-1 0-2-1-2 0-1-1-3-1-4-18-33-53-56-93-56-57 0-104 47-104 104 0 58 47 104 104 104z m542-271c57 0 104-46 104-104 0-57-47-104-104-104-58 0-104 47-104 104 0 15 3 30 9 43 0 0 0 1 1 2 0 1 1 2 1 3 18 33 53 56 93 56z" horiz-adv-x="1000" />

<glyph glyph-name="ticket" unicode="&#xe859;" d="M219 725c-86 0-156-70-156-156v-118c0-21 17-38 38-38h24c35 0 63-28 63-63 0-34-28-62-63-62h-24c-21 0-38-18-38-39v-118c0-86 70-156 156-156h437 125c87 0 157 70 157 156v118c0 21-18 39-39 39h-24c-34 0-62 28-62 62 0 35 28 63 62 63h24c21 0 39 17 39 38v118c0 86-70 156-157 156h-125z m0-62h406v-94c0-17 14-31 31-31 18 0 32 14 32 31v94h93c52 0 94-42 94-94v-94c-69 0-125-56-125-125 0-69 56-125 125-125v-94c0-51-42-93-94-93h-93v93c0 18-14 32-32 32-17 0-31-14-31-32v-93h-406c-52 0-94 42-94 93v94c69 0 125 56 125 125 0 69-56 125-125 125v94c0 52 42 94 94 94z m437-188c-17 0-31-14-31-31v-188c0-17 14-31 31-31 18 0 32 14 32 31v188c0 17-14 31-32 31z" horiz-adv-x="1000" />

<glyph glyph-name="coche" unicode="&#xe85a;" d="M217 631c-13 0-24-8-29-19l-108-219c-12-22-17-47-17-72v-38c0-65 50-119 114-124 9-52 54-90 107-90 54 0 99 38 108 89h204c9-51 54-89 107-89 54 0 98 38 108 89h14c62 0 113 50 113 113v20c0 59-40 112-98 127l-95 26-83 105c-42 52-105 82-171 82h-22-252z m31-62h190v-119h-96c-52 0-94 42-94 94z m252 0c44-3 85-24 113-59l48-60h-161z m-304-81c23-59 79-100 146-100h374l107-30c31-8 52-36 52-67v-20c0-28-22-50-50-50h-21c-17 39-55 67-101 67-45 0-84-28-101-67h-217c-16 39-55 67-101 67-45 0-84-28-100-67-33 2-59 29-59 62v38c0 15 4 31 11 45z m88-263c26 0 47-21 47-47 0-26-21-47-47-47-25 0-46 21-46 47 0 26 21 47 46 47z m419 0c26 0 47-21 47-47 0-26-21-47-47-47-26 0-47 21-47 47 0 26 21 47 47 47z" horiz-adv-x="1000" />

<glyph glyph-name="building-business" unicode="&#xe85b;" d="M500 788c-86 0-178-25-250-77-73-51-125-131-125-236l0-500h-31c-17 0-31-14-31-31 0-18 14-32 31-32h61c1 0 1 0 1 0 1 0 1 0 1 0h342c0 0 1 0 1 0 0 0 1 0 1 0h342c0 0 0 0 1 0l0 0c0 0 1 0 1 0h61c18 0 32 14 32 32 0 17-14 31-32 31h-31l0 250c0 90-53 169-124 224-62 48-141 80-220 87v220c0 18-14 32-31 32z m-31-64v-218-531h-281l0 500c0 82 39 144 98 186 51 36 117 58 183 63z m-125-186c-17 0-31-14-31-32 0-17 14-31 31-31 17 0 31 14 31 31 0 18-14 32-31 32z m187-65c64-6 130-33 182-74 61-47 100-109 100-174l0-250h-282z m-187-60c-17 0-31-14-31-32 0-17 14-31 31-31 17 0 31 14 31 31 0 18-14 32-31 32z m0-125c-17 0-31-14-31-32 0-17 14-31 31-31 17 0 31 14 31 31 0 18-14 32-31 32z m0-125c-17 0-31-14-31-32 0-17 14-31 31-31 17 0 31 14 31 31 0 18-14 32-31 32z" horiz-adv-x="1000" />

<glyph glyph-name="controls-4" unicode="&#xe85c;" d="M583 725c-52 0-96-35-110-83h-317c-17 0-31-14-31-32 0-17 14-31 31-31h317c14-48 58-83 110-83 53 0 97 35 111 83h150c17 0 31 14 31 31 0 18-14 32-31 32h-150c-14 48-58 83-111 83z m0-62c29 0 52-24 52-53 0-28-23-52-52-52-28 0-52 24-52 52 0 29 24 53 52 53z m-281-198c-52 0-97-36-110-84-2 0-3 0-4 0h-32c-17 0-31-14-31-31 0-17 14-31 31-31h32c1 0 2 0 4 0 13-48 58-84 110-84 53 0 97 36 110 84 2 0 3 0 5 0h427c17 0 31 14 31 31 0 17-14 31-31 31h-427c-2 0-3 0-5 0-13 48-57 84-110 84z m0-63c29 0 52-23 52-52 0-29-23-52-52-52-29 0-52 23-52 52 0 29 23 52 52 52z m406-198c-52 0-96-35-110-83h-442c-17 0-31-14-31-31 0-17 14-31 31-31h442c14-49 58-84 110-84 53 0 97 35 111 84h25c17 0 31 14 31 31 0 17-14 31-31 31h-25c-14 48-58 83-111 83z m0-62c29 0 52-23 52-52 0-29-23-52-52-52-28 0-52 23-52 52 0 29 24 52 52 52z" horiz-adv-x="1000" />

<glyph glyph-name="calendar-8" unicode="&#xe85d;" d="M313 788c-18 0-32-14-32-32v-31h-31c-104 0-187-84-187-187v-63-375c0-104 83-188 187-188h500c104 0 188 84 188 188v375 63c0 103-84 187-188 187h-31v31c0 18-14 32-31 32-18 0-32-14-32-32v-31h-312v31c0 18-14 32-31 32z m-63-125h31v-50c0-17 14-31 32-31 17 0 31 14 31 31v50h312v-50c0-17 14-31 32-31 17 0 31 14 31 31v50h31c69 0 125-56 125-125v-32h-750v32c0 69 56 125 125 125z m-125-219h750v-344c0-69-56-125-125-125h-500c-69 0-125 56-125 125z" horiz-adv-x="1000" />

<glyph glyph-name="close-2" unicode="&#xe85e;" d="M217 670c-9 0-19-3-26-11-15-14-15-38 0-53l256-256-256-256c-15-15-15-39 0-53 14-15 38-15 53 0l256 256 256-256c15-15 39-15 53 0 15 14 15 38 0 53l-256 256 256 256c15 15 15 39 0 53-14 15-38 15-53 0l-256-256-256 256c-8 8-17 11-27 11z" horiz-adv-x="1000" />

<glyph glyph-name="arrow-2" unicode="&#xe85f;" d="M578 647c-12 0-24-5-33-14-18-18-18-48 0-66l170-170h-543c-26 0-47-21-47-47 0-26 21-47 47-47h543l-170-170c-18-18-18-48 0-66 18-18 48-18 66 0l250 250c19 18 19 48 0 66l-250 250c-9 9-21 14-33 14z" horiz-adv-x="1000" />

<glyph glyph-name="bus" unicode="&#xe860;" d="M218 663c-86-1-155-71-155-157v-293c0-63 50-113 112-113h23c18-37 55-62 99-62 44 0 81 25 99 62h240c17-37 55-62 98-62 45 0 83 26 100 64 59 10 104 61 104 123v40c0 23-6 47-16 69l-93 202c-36 77-114 127-199 127h-411c0 0 0 0-1 0z m40-63h273v-219h-99c-74 0-137 51-153 123z m336 0h36c61 0 116-35 142-91l59-128h-237z m-400-3l24-107c22-100 111-171 214-171h131 31 0 266l6-12c6-13 9-28 9-42v-40c0-24-14-45-34-55-10 49-54 86-107 86-55 0-100-40-108-93h-221c-7 53-53 93-108 93-55 0-101-40-108-93h-14c-28 0-50 22-50 50v293c0 44 29 80 69 91z m103-403c26 0 47-21 47-47 0-26-21-47-47-47-26 0-47 21-47 47 0 26 21 47 47 47z m437 0c26 0 47-21 47-47 0-26-21-47-47-47-25 0-46 21-46 47 0 26 21 47 46 47z" horiz-adv-x="1000" />

<glyph glyph-name="zoom-in" unicode="&#xe861;" d="M422 788c-199 0-359-161-359-360 0-198 160-359 359-359 88 0 168 32 231 84l231-231c12-13 32-13 44 0 13 12 13 32 0 44l-231 231c53 63 84 143 84 231 0 199-161 360-359 360z m0-63c164 0 297-133 297-297 0-164-133-297-297-297-164 0-297 133-297 297 0 164 133 297 297 297z m0-141c-17 0-31-14-31-31v-94h-94c-17 0-31-14-31-31 0-17 14-31 31-31h94v-94c0-17 14-31 31-31 17 0 31 14 31 31v94h94c17 0 31 14 31 31 0 17-14 31-31 31h-94v94c0 17-14 31-31 31z" horiz-adv-x="1000" />

<glyph glyph-name="document" unicode="&#xe862;" d="M313 788c-104 0-188-84-188-188v-500c0-104 84-188 188-188h375c103 0 187 84 187 188v353c0 14-5 28-14 39l-217 272c-12 15-30 24-49 24z m0-63h250v-156c0-69 56-125 125-125h125v-344c0-69-56-125-125-125h-375c-69 0-125 56-125 125v500c0 69 56 125 125 125z m312-38l145-181h-82c-35 0-63 28-63 63z" horiz-adv-x="1000" />

<glyph glyph-name="internet" unicode="&#xe863;" d="M500 788c-242 0-437-196-437-438 0-242 195-438 437-438 242 0 438 196 438 438 0 242-196 438-438 438z m-85-73c-36-37-65-98-83-177h-157c51 88 138 154 240 177z m170 0c102-23 189-89 240-177h-157c-18 79-47 140-83 177z m-85-21c15 0 46-13 76-77 11-22 20-49 28-79h-208c8 30 17 57 28 79 30 64 61 77 76 77z m-354-219h175c-6-39-8-80-8-125 0-44 2-86 8-125h-175c-13 39-21 81-21 125 0 44 8 86 21 125z m238 0h232c6-38 9-80 9-125 0-45-3-87-9-125h-232c-6 38-9 80-9 125 0 45 3 87 9 125z m295 0h175c14-39 21-81 21-125 0-44-7-86-21-125h-175c6 39 9 81 9 125 0 45-3 86-9 125z m-504-312h157c18-80 47-141 83-178-102 23-189 89-240 178z m221 0h208c-8-31-17-57-28-80-30-64-61-77-76-77-15 0-46 13-76 77-11 23-20 49-28 80z m272 0h157c-51-89-138-155-240-178 36 37 65 98 83 178z" horiz-adv-x="1000" />

<glyph glyph-name="list-1" unicode="&#xe864;" d="M156 631c-17 0-31-14-31-31 0-17 14-31 31-31 18 0 32 14 32 31 0 17-14 31-32 31z m157 0c-18 0-32-14-32-31 0-17 14-31 32-31h531c17 0 31 14 31 31 0 17-14 31-31 31z m-157-250c-17 0-31-14-31-31 0-17 14-31 31-31 18 0 32 14 32 31 0 17-14 31-32 31z m157 0c-18 0-32-14-32-31 0-17 14-31 32-31h531c17 0 31 14 31 31 0 17-14 31-31 31z m-157-250c-17 0-31-14-31-31 0-17 14-31 31-31 18 0 32 14 32 31 0 17-14 31-32 31z m157 0c-18 0-32-14-32-31 0-17 14-31 32-31h531c17 0 31 14 31 31 0 17-14 31-31 31z" horiz-adv-x="1000" />

<glyph glyph-name="graphics-book" unicode="&#xe865;" d="M458 788c-44 0-83-26-102-63h-12c-121 0-219-98-219-219v-375c0-121 98-219 219-219h312c121 0 219 98 219 219v375c0 121-98 219-219 219h-12c-19 37-58 63-102 63z m0-63h84c28 0 52-23 52-52 0-29-24-52-52-52h-84c-28 0-52 23-52 52 0 29 24 52 52 52z m-114-62h0c6-59 55-105 114-105h84c59 0 109 46 114 105h0c87 0 157-70 157-157v-375c0-86-70-156-157-156h-312c-86 0-156 70-156 156v375c0 87 70 157 156 157z m31-250c-17 0-31-14-31-32v-250c0-17 14-31 31-31 17 0 31 14 31 31v250c0 18-14 32-31 32z m250-125c-17 0-31-14-31-32v-125c0-17 14-31 31-31 17 0 31 14 31 31v125c0 18-14 32-31 32z m-125-63c-17 0-31-14-31-31v-63c0-17 14-31 31-31 17 0 31 14 31 31v63c0 17-14 31-31 31z" horiz-adv-x="1000" />

<glyph glyph-name="exhibitors" unicode="&#xe866;" d="M281 725c-121 0-218-98-218-219v-312c0-121 97-219 218-219h438c121 0 219 98 219 219v312c0 121-98 219-219 219z m0-62h438c86 0 156-70 156-157v-312c0-86-70-156-156-156h-438c-86 0-156 70-156 156v312c0 87 70 157 156 157z m94-63c-69 0-125-56-125-125 0-69 56-125 125-125 69 0 125 56 125 125 0 69-56 125-125 125z m0-62c35 0 63-28 63-63 0-34-28-62-63-62-34 0-62 28-62 62 0 35 28 63 62 63z m250-32c-17 0-31-14-31-31 0-17 14-31 31-31h63c17 0 31 14 31 31 0 17-14 31-31 31z m0-125c-17 0-31-14-31-31 0-17 14-31 31-31h156c18 0 32 14 32 31 0 17-14 31-32 31z m-281-62c-86 0-156-70-156-156 0-35 28-63 62-63h250c35 0 63 28 63 63 0 86-70 156-157 156z m0-63h62c28 0 53-12 70-31 15-17 24-38 24-62h-250c0 24 9 45 24 62 17 19 42 31 70 31z" horiz-adv-x="1000" />

<glyph glyph-name="mail" unicode="&#xe867;" d="M281 725c-121 0-218-98-218-219v-312c0-121 97-219 218-219h438c121 0 219 98 219 219v312c0 121-98 219-219 219z m0-62h438c65 0 121-40 144-97-1 0-2-1-4-1l-359-209-359 209c-1 0-3 1-4 1 24 57 79 97 144 97z m-156-162l359-209c10-5 22-5 32 0l359 209v-307c0-86-70-156-156-156h-438c-86 0-156 70-156 156z" horiz-adv-x="1000" />

<glyph glyph-name="map-location" unicode="&#xe868;" d="M740 756c-35 0-69-9-98-26-30-17-55-41-73-71-17-30-27-63-27-98-1-34 8-68 25-98l91-164c36-63 128-63 163 0l92 163 0 1c16 30 25 64 25 98-1 35-10 68-28 98-17 30-42 54-72 71-30 17-64 26-98 26z m0-62c23 0 46-6 67-18 20-12 37-29 49-49 12-20 19-43 19-67 0-23-5-46-17-67l0 0-91-163c-12-21-43-21-55 0l-91 163 0 0c-11 21-17 44-17 67 1 24 7 47 19 67 12 20 29 37 49 49 21 12 44 18 68 18z m-375-17c-11 0-23-3-34-8l-213-94c-34-15-55-49-55-86v-422c0-69 72-115 134-85l177 86 208-113c26-14 58-15 85-2l217 105c33 15 53 48 53 84v44c0 17-14 31-31 31-17 0-31-14-31-31v-44c0-12-7-23-18-28l-201-97v169c0 17-14 31-31 31-17 0-31-14-31-31v-166l-188 101c0 1 0 2 0 3v472l14-9c14-9 34-6 43 9 10 14 6 34-8 43l-34 23c-17 11-36 16-56 15z m-21-70v-483c0-1 0-1 0-2l-174-83c-21-10-45 5-45 28v422c0 13 7 24 19 29z m396-15c-18 0-31-14-31-31v0c0-18 13-32 31-32 17 0 31 14 31 32v0c0 17-14 31-31 31z" horiz-adv-x="1000" />

<glyph glyph-name="left" unicode="&#xe869;" d="M625 647c-12 0-24-5-33-14l-250-250c-18-18-18-48 0-66l250-250c18-18 48-18 66 0 19 18 19 48 0 66l-217 217 217 217c19 18 19 48 0 66-9 9-21 14-33 14z" horiz-adv-x="1000" />

<glyph glyph-name="location" unicode="&#xe86a;" d="M500 788c-193 0-375-153-375-382 0-222 209-399 315-474 36-26 84-26 120 0 106 75 315 252 315 474 0 229-175 382-375 382z m0-63c167 0 313-126 313-319 0-91-44-177-104-253-61-75-135-134-185-170-15-11-33-11-48 0-50 36-124 95-184 170-61 76-104 162-104 253 0 192 151 319 312 319z m0-125c-92 0-167-75-167-167 0-92 75-166 167-166 92 0 167 74 167 166 0 92-75 167-167 167z m0-62c58 0 104-47 104-105 0-57-46-104-104-104-57 0-104 47-104 104 0 58 47 105 104 105z" horiz-adv-x="1000" />

<glyph glyph-name="marketing" unicode="&#xe86b;" d="M591 663c-16-1-33-6-49-16l-225-143h-86c-93 0-168-72-168-162 0-89 75-161 168-161h87l228-131c62-35 142 8 142 78v444c0 54-47 92-97 91z m2-61c16 1 32-12 32-30v-444c0-23-26-38-47-26l-203 116v251l202 128c5 4 10 5 16 5z m299-2c-6 0-12-1-18-4l-108-63c-15-8-20-27-12-42 9-15 28-20 43-12l108 63c15 8 20 27 12 42-6 10-15 15-25 16z m-661-156h82v-203h-82c-59 0-106 45-106 101 0 57 47 102 106 102z m550-63c-17 0-31-14-31-31 0-17 14-31 31-31h125c18 0 32 14 32 31 0 17-14 31-32 31z m-2-156c-10-1-19-6-25-16-8-15-3-34 12-42l108-63c15-8 34-3 43 12 8 15 3 34-12 42l-108 63c-6 3-12 4-18 4z" horiz-adv-x="1000" />

<glyph glyph-name="more-2-fill" unicode="&#xe86c;" d="M203 428c-43 0-78-35-78-78 0-43 35-78 78-78 43 0 78 35 78 78 0 43-35 78-78 78z m297 0c-43 0-78-35-78-78 0-43 35-78 78-78 43 0 78 35 78 78 0 43-35 78-78 78z m297 0c-43 0-78-35-78-78 0-43 35-78 78-78 43 0 78 35 78 78 0 43-35 78-78 78z" horiz-adv-x="1000" />

<glyph glyph-name="fair" unicode="&#xe86d;" d="M500 781c-29 0-57-12-81-31l-308-222-1-1c-30-22-47-57-47-95v-432c0-17 14-31 31-31 17 0 31 14 31 31v432c0 17 8 34 22 45l309 222c0 0 1 1 1 1 17 14 31 18 43 18 12 0 26-4 43-18 1 0 1-1 1-1l309-222c14-11 22-27 22-45v-432c0-17 14-31 31-31 18 0 32 14 32 31v432 1c-1 37-18 72-48 94l-1 1-308 222c-24 19-52 31-81 31z m31-340c-17 0-31-14-31-31v-126h-219c-51 0-93-43-93-95v-126c0-52 42-94 93-94h438c52 0 94 42 94 94v284c0 52-42 94-94 94z m32-63h156c17 0 31-14 31-31v-284c0-17-14-31-31-31h-156z m-282-157h219v-189h-219c-17 0-31 14-31 31v126c0 18 14 32 31 32z" horiz-adv-x="1000" />

<glyph glyph-name="menu-2-fill" unicode="&#xe86e;" d="M167 663c-23 0-42-18-42-40 0-21 19-39 42-39h666c23 0 42 18 42 39 0 22-19 40-42 40z m0-274c-23 0-42-17-42-39 0-22 19-39 42-39h666c23 0 42 17 42 39 0 22-19 39-42 39z m0-273c-23 0-42-18-42-39 0-22 19-39 42-39h458c23 0 42 17 42 39 0 21-19 39-42 39z" horiz-adv-x="1000" />

<glyph glyph-name="newspaper" unicode="&#xe86f;" d="M281 788c-121 0-218-98-218-219v-438c0-121 97-219 218-219h500c4 0 7 1 11 2 6-1 13-2 21-2 69 0 125 56 125 126v468c0 87-70 157-157 157h-52c-35 73-110 125-198 125z m0-63h250c87 0 157-70 157-156v-156-282-93c0-23 6-45 16-63h-423c-86 0-156 70-156 156v438c0 86 70 156 156 156z m467-125h33c52 0 94-42 94-94v-468c0-35-28-63-62-63-35 0-63 28-63 63v93 282 156c0 10-1 21-2 31z m-467-62c-17 0-31-14-31-32 0-17 14-31 31-31h250c18 0 32 14 32 31 0 18-14 32-32 32z m0-157c-17 0-31-14-31-31 0-17 14-31 31-31h250c18 0 32 14 32 31 0 17-14 31-32 31z" horiz-adv-x="1000" />

<glyph glyph-name="avion" unicode="&#xe870;" d="M378 756c-10 0-19-4-25-12-6-8-8-18-5-27l70-252h-108l-72 74c-6 6-14 9-22 9h-122c-11 0-21-6-27-15-5-9-6-20-1-30l74-153-74-153c-5-10-4-21 1-30 6-9 16-15 27-15h122c8 0 16 4 22 10l72 73h108l-70-252c-3-9-1-19 5-27 6-8 15-12 25-12h122c11 0 22 6 27 16l154 275h144c30 0 59 13 80 34 21 22 33 51 33 81 0 30-12 59-33 81-21 21-50 34-80 34h-144l-154 275c-5 10-16 16-27 16z m41-62h63l153-276c6-10 16-16 28-16h162c13 0 26-5 35-15 10-10 15-23 15-37 0-14-5-27-15-37-9-10-22-15-35-15h-162c-12 0-22-6-28-16l-153-276h-63l71 252c2 10 0 20-6 28-6 7-15 12-25 12h-162c-9 0-17-3-22-9l-73-74h-58l59 121c4 9 4 19 0 28l-59 121h58l73-73c5-6 13-10 22-10h162c10 0 19 5 25 13 6 7 8 17 6 27z" horiz-adv-x="1000" />

<glyph glyph-name="phone" unicode="&#xe871;" d="M188 788c-32 0-63-13-85-36-11-11-21-25-28-40-7-15-12-32-12-50 0-1 0-1 0-2 11-183 120-379 245-505 127-128 327-231 508-243 1 0 1 0 2 0 32 0 62 13 85 36 22 22 35 53 35 85v177c0 13-8 24-19 29l-252 115c-14 6-31 1-39-13l-51-85c-73 40-138 99-179 169l85 51c13 8 19 24 13 38l-103 254c-5 12-16 20-29 20z m0-63h155l85-209-87-53c-14-8-20-26-12-41 50-104 145-186 245-236 15-7 33-2 41 12l52 87 208-95v-157c0-16-6-30-17-41-10-11-24-17-39-17-163 10-349 106-466 224-118 118-218 300-228 464 0 5 2 13 6 22 5 9 11 18 16 23 11 11 26 17 41 17z" horiz-adv-x="1000" />

<glyph glyph-name="sectors" unicode="&#xe872;" d="M500 756c-10 0-18-4-22-5 0 0 0-1-1-1l-362-160-2-1c-10-4-20-9-27-13-8-5-23-16-23-38 0-21 15-32 23-37 7-5 17-9 27-13l2-1 362-161c1 0 1 0 1 0 4-1 12-5 22-5 10 0 19 4 22 5 0 0 1 0 1 0l363 161 1 1c10 4 20 8 28 13 7 5 23 16 23 37 0 22-16 33-23 38-8 4-18 9-28 13l-1 1-363 160c0 0-1 1-1 1-3 1-12 5-22 5z m0-64l347-154-347-153-347 153z m-382-137c0 0 0-1 0-1 0 0 0 1 0 1z m764 0c0 0 0-1 0-1 0 0 0 1 0 1z m-764-33c0 0 0 0 0 0 0 0 0 0 0 0z m764 0c0 0 0 0 0 0 0 0 0 0 0 0z m-787-140c-12 0-24-7-29-18-8-16-1-35 15-42l406-188c8-3 18-3 26 0l406 188c16 7 23 26 15 42-7 15-25 22-41 15l-393-182-393 182c-4 2-8 3-12 3z m0-188c-12 1-24-6-29-18-8-16-1-34 15-42l406-187c8-4 18-4 26 0l406 187c16 8 23 26 15 42-7 16-25 22-41 15l-393-181-393 181c-4 2-8 3-12 3z" horiz-adv-x="1000" />

<glyph glyph-name="note" unicode="&#xe873;" d="M313 788c-104 0-188-84-188-188v-500c0-104 84-188 188-188h375c103 0 187 84 187 188v353c0 14-5 28-14 39l-217 272c-12 15-30 24-49 24z m0-63h250v-156c0-69 56-125 125-125h125v-344c0-69-56-125-125-125h-375c-69 0-125 56-125 125v500c0 69 56 125 125 125z m312-38l145-181h-82c-35 0-63 28-63 63z m-312-149c-18 0-32-14-32-32 0-17 14-31 32-31h93c18 0 32 14 32 31 0 18-14 32-32 32z m0-172c-18 0-32-14-32-32 0-17 14-31 32-31h312c17 0 31 14 31 31 0 18-14 32-31 32z" horiz-adv-x="1000" />

<glyph glyph-name="unlink-fill" unicode="&#xe875;" d="M344 788c-17 0-31-14-31-32v-125c0-17 14-31 31-31 17 0 31 14 31 31v125c0 18-14 32-31 32z m327-63c-52 0-104-20-144-59l-98-98c-12-13-12-32 0-44 12-13 32-13 44 0l98 97c55 56 145 56 200 0 56-55 56-145 0-200l-97-98c-13-12-13-32 0-44 12-12 32-12 44 0l98 98c79 80 79 209 0 289-40 39-93 59-145 59z m-577-187c-17 0-31-14-31-32 0-17 14-31 31-31h125c17 0 31 14 31 31 0 18-14 32-31 32z m210-108c-8 0-15-3-22-9l-97-98c-80-79-80-209 0-288 79-80 209-80 288 0l98 97c12 13 12 32 0 45-12 12-32 12-44 0l-98-98c-55-56-145-56-200 0-56 55-56 145 0 200l98 98c12 12 12 32 0 44-7 6-15 9-23 9z m477-205c-17 0-31-14-31-31 0-17 14-31 31-31h125c18 0 32 14 32 31 0 17-14 31-32 31z m-125-125c-17 0-31-14-31-31v-125c0-18 14-32 31-32 18 0 32 14 32 32v125c0 17-14 31-32 31z" horiz-adv-x="1000" />

<glyph glyph-name="todos_los_publicos" unicode="&#xe876;" d="M250 725c-69 0-125-56-125-125 0-69 56-125 125-125 69 0 125 56 125 125 0 69-56 125-125 125z m500 0c-69 0-125-56-125-125 0-69 56-125 125-125 69 0 125 56 125 125 0 69-56 125-125 125z m-500-62c35 0 63-28 63-63 0-34-28-62-63-62-34 0-62 28-62 62 0 35 28 63 62 63z m500 0c35 0 63-28 63-63 0-34-28-62-63-62-34 0-62 28-62 62 0 35 28 63 62 63z m-250-157c-69 0-125-56-125-125 0-69 56-125 125-125 69 0 125 56 125 125 0 69-56 125-125 125z m0-62c35 0 63-28 63-63 0-34-28-62-63-62-34 0-62 28-62 62 0 35 28 63 62 63z m-312-31c-69 0-125-56-125-125 0-69 56-125 125-125 69 0 125 56 125 125 0 69-56 125-125 125z m625 0c-69 0-125-56-125-125 0-69 56-125 125-125 69 0 125 56 125 125 0 69-56 125-125 125z m-625-63c34 0 62-28 62-62 0-35-28-63-62-63-35 0-63 28-63 63 0 34 28 62 63 62z m625 0c34 0 62-28 62-62 0-35-28-63-62-63-35 0-63 28-63 63 0 34 28 62 63 62z m-344-125c-104 0-188-84-188-187 0-35 28-63 63-63h312c35 0 63 28 63 63 0 103-84 187-188 187z m0-62h62c47 0 87-26 109-63 10-18 16-40 16-62h-312c0 22 6 44 17 62 21 37 62 63 108 63z" horiz-adv-x="1000" />

<glyph glyph-name="calendar-9" unicode="&#xe877;" d="M313 788c-18 0-32-14-32-32v-31h-31c-104 0-187-84-187-187v-63-375c0-104 83-188 187-188h500c104 0 188 84 188 188v375 63c0 103-84 187-188 187h-31v31c0 18-14 32-31 32-18 0-32-14-32-32v-31h-312v31c0 18-14 32-31 32z m-63-125h31v-50c0-17 14-31 32-31 17 0 31 14 31 31v50h312v-50c0-17 14-31 32-31 17 0 31 14 31 31v50h31c69 0 125-56 125-125v-32h-750v32c0 69 56 125 125 125z m-125-219h750v-344c0-69-56-125-125-125h-500c-69 0-125 56-125 125z m188-219c-35 0-63-28-63-62 0-35 28-63 63-63 34 0 62 28 62 63 0 34-28 62-62 62z" horiz-adv-x="1000" />

<glyph glyph-name="artists" unicode="&#xe878;" d="M500 756c-53 0-106-10-155-31-50-20-94-50-132-88-38-37-68-82-88-131-21-50-31-103-31-156 0-53 10-106 31-155 20-50 50-94 88-132 38-38 82-68 132-88 48-21 101-31 154-31 17-2 34 2 49 11 16 9 28 23 35 39 7 17 9 35 6 52-4 18-13 34-26 46-2 1-4 3-6 4-10 6-18 15-23 25-4 11-5 23-2 34 3 11 9 21 19 28 9 7 20 11 32 11h105c56 0 112 20 153 57 41 36 65 87 65 141 0 98-44 191-120 259-76 68-179 105-286 105z m0-62c92 0 180-33 244-90 65-57 100-133 100-212 0-35-16-69-45-95-29-26-69-41-111-41h-104c-26 1-51-7-71-23-20-15-35-37-42-62-6-24-4-51 6-74 9-22 25-41 45-53 3-3 5-7 5-10 1-5 1-10-1-14-2-5-5-8-9-11-5-2-9-3-14-3-1 0-2 0-3 0-45 0-90 9-132 26-41 18-79 43-111 75-32 32-57 70-75 111-17 42-26 87-26 132 0 45 9 90 26 132 18 41 43 79 75 111 32 32 70 57 111 75 42 17 87 26 132 26z m0-104c-29 0-52-24-52-52 0-29 23-53 52-53 29 0 52 24 52 53 0 28-23 52-52 52z m-187-125c-29 0-53-24-53-52 0-29 24-53 53-53 28 0 52 24 52 53 0 28-24 52-52 52z m375 0c-29 0-53-24-53-52 0-29 24-53 53-53 28 0 52 24 52 53 0 28-24 52-52 52z" horiz-adv-x="1000" />

<glyph glyph-name="user-8" unicode="&#xe879;" d="M500 725c-104 0-187-84-187-187 0-104 83-188 187-188 104 0 188 84 188 188 0 103-84 187-188 187z m0-62c69 0 125-56 125-125 0-69-56-125-125-125-69 0-125 56-125 125 0 69 56 125 125 125z m-94-375c-121 0-218-98-218-219 0-52 42-94 93-94h438c52 0 94 42 94 94 0 121-98 219-219 219z m0-63h188c86 0 156-70 156-156 0-17-14-31-31-31h-438c-17 0-31 14-31 31 0 86 70 156 156 156z" horiz-adv-x="1000" />

<glyph glyph-name="fashion" unicode="&#xe87a;" d="M858 306c11 11 21 23 34 38 12 16 23 33 31 52 12 33 17 67 17 102 0 54-23 94-48 119-25 25-54 37-69 43l0 0c-10 5-21 3-29-2-9-4-17-12-21-23-6-18-31-75-115-185-52-71-114-131-170-173-30-21-57-37-80-48-25-10-43-14-58-14-37 2-71 20-98 50-6 8-14 12-25 14-10 2-19-2-27-8-29-23-62-52-90-83-25-34-47-73-47-113 0-46 31-73 52-83 10-7 23-11 31-13 4-2 8-2 10-2 2 0 2 0 2 0l0 0 0 0 0 0 0 0c0 0 0 0 0 2l0 4c0-2 0-4 0-4l0-2c2 0 2 0 5 0h316c27 0 50 13 71 31 21 17 40 42 58 67 17 25 34 52 50 79 2 2 2 4 5 6 10 17 20 34 31 48 2-18 2-43 0-68-2-32-6-63-9-86-2-12-2-21-4-29 0-4 0-6-2-8l0-2 0 0 0 0c-2-9 0-19 6-25 7-7 13-11 21-11h161c8 0 16 4 23 13 6 8 6 16 4 27l0 0 0 0 0 2c0 2-2 4-2 8-2 6-4 17-7 29-6 25-12 59-18 96-7 36-11 73-13 102 0 15 0 29 0 38 2 4 4 10 4 12z m-695-314l2 14c-2-6-2-10-2-14z m577 46c0 2 0 4 0 4 2 25 6 58 8 89 2 34 2 67-2 96-2 13-4 27-11 40-6 12-18 25-35 27 0 0-2 0-2 0 0 0 0 0-2 0 0 0 0 0-2 0 0 0-2 0-2 0 0 0-2 0-2 0 0 0-2 0-2 0 0 0-3 0-3 0 0 0-2-2-2-2 0 0-2 0-2-2 0 0-2-2-2-2 0 0 0-3-2-3 0 0 0 0-2-2-21-29-40-60-58-89-2-2-2-4-4-6-17-28-34-55-50-75-17-25-34-44-48-57-15-12-27-18-38-18h-310c0 0 0 0 0 0-2 0-4 0-7 2-6 2-12 4-20 8-15 8-21 17-21 27 0 17 10 42 35 71 19 25 44 48 69 67 33-36 77-57 125-59l0 0c25-2 52 6 81 19 29 12 59 31 90 54 60 46 127 111 183 186 73 95 104 154 117 185 10-6 25-13 37-25 17-17 29-40 29-73 0 0 0 0 0-2 0-27-2-52-12-77-4-11-13-23-21-38-10-14-21-27-31-35 0 0 0 0 0 0-2-2-2-4-4-6 0-2-2-2-2-4 0 0 0 0 0-3-7-12-9-25-11-37-2-15-2-31-2-48 2-35 6-75 13-110 6-38 12-73 18-98 0-2 0-2 0-4h-93z" horiz-adv-x="1000" />

<glyph glyph-name="pubg" unicode="&#xe87b;" d="M661 450c0-18 0-36 0-54 0-6-1-11-2-17-1-5-4-10-8-13-3-1-3-3-1-5 3-4 6-7 9-11 3-4 5-8 5-14 1-31 1-62 1-93 0-14-1-29-3-44-1-12-8-20-20-21-9-2-19-2-28-3-26 0-51 0-77 0-4 0-5 0-5 4-1 38-2 75-2 112-1 13-1 26-2 39 0 5-3 9-4 13-5 14-4 28 3 41 0 0 0 1 0 1 7 3 6 8 5 14-1 4 0 8 0 11-1 16-2 31-2 46 0 22 1 44 1 66 0 3 3 4 5 4 12 1 23 2 34 1 24 0 48-1 71-2 3 0 5 0 7-1 10-2 14-7 14-17 1-19 0-38 0-57 0 0-1 0-1 0z m-51-175h0c0 16 0 31 0 47 0 11-1 13-13 13-12 0-14-1-14-13 0-31 0-62-3-93 0-3 1-6 4-6 7-1 15-2 23-2 1 0 2 2 3 3 0 2 0 3 0 5 0 16 0 31 0 46z m-28 206c0-7 1-13 0-18 0-17-1-33-1-50 0-7 2-14 2-22 0-3 0-5 5-6 2 0 5-1 8-1 12-1 14 0 14 13 0 14 0 29 0 44 0 11 0 23 0 35 0 2-1 3-3 4-8 0-16 0-25 1z m-236-32c-1 2-2 4-2 6 0 3 0 6 1 9 0 2 1 5 3 6 2 2 2 3 1 4-4 4-5 9-5 13 0 11 0 21 0 32 1 6 3 8 10 7 7 0 15 1 23 1 3 0 6-2 9-3 9-2 11-8 11-16 0-67 0-133 1-200 0-25-1-50-2-75 0-8 4-11 11-9 1 0 2 0 2 0 8 5 14 2 19-4 0 0 1 0 2-1 3 4 6 9 6 14 1 10 0 20 1 31 1 7 2 14 3 21 0 2-1 4-2 5-2 3-4 6 0 9 1 2 1 4 1 7 0 19-1 38-1 58-1 44-1 89-1 133 0 6 2 12 3 18 0 5 4 8 9 8 9 1 19 0 29 0 1 0 2-1 3-2 1-5 3-3 5-1 0 1 1 1 2 2 1-3 2-5 2-7 1-5 1-9 1-14 0-69 0-139 1-208 0-30-1-60-4-90 0-4 0-7-1-10-2-8-8-13-16-15-18-3-36-2-55-2-15-1-31-1-47-1-12-1-23 7-24 19-2 11-3 22-3 33 0 35 0 69 0 104 0 32 2 65 3 97 0 7 1 14 1 21z m495-163c0-27 0-53-1-80 0-12-4-22-15-28-4-1-8-2-12-3-30-2-60 0-89 1-4 0-7 2-10 4-7 6-13 13-13 25 1 40 0 80 1 121 0 19 0 39 0 58 0 26-2 53-2 79 0 13 1 25 2 38 0 7 4 13 9 19 6 6 12 8 20 8 24 0 47 0 71 0 7 0 13-1 20-3 6-1 11-5 15-10 1-2 1-4 1-5 0-20-1-39-2-58 0-9-1-9-9-9-10-1-20-1-30 0-5 0-5 1-2 5 0 1 0 2 0 2-1 7-2 14-3 22 0 7-2 9-9 9-8-1-17-1-25-1-3 0-4-1-4-4 0-10 1-19 1-28 0-36 1-72 1-108 0-23 0-47 0-70-1-14-2-28-3-41 0-4 1-5 4-5 8-1 17-2 25-2 7 0 11 7 9 13-1 6-3 13-3 20 0 25 0 50 0 76 0 2-1 4-3 5-8 3-11 9-9 17 1 9 0 17 0 26 0 3 2 5 5 5 4 1 7 2 11 2 14 0 28 0 42 0 2 0 4-2 4-3 1-6 2-12 3-19 0-26 0-52 0-78z m-669 156c-8 0-6 5-6 10-1 22 0 45-1 67 0 4 2 6 5 6 9 0 18 1 26 1 28 0 56-1 84-1 4-1 7-1 11-2 10-2 14-7 14-18 0-10 0-21 0-31 0-46 0-91 0-137 0-4-2-8-5-11-6-6-14-8-22-9-14 0-28-1-42-1-4 0-9-1-13-1-3 0-4-2-4-6 1-30 1-60 2-90 0-11-1-21-1-32-1-10-6-14-16-14-9-1-18-1-27 0-2 0-5 1-6 3-4 4-6 9-6 15 0 37 0 73 1 110 0 2 0 5 1 7 2 4 1 8-2 10-7 3-7 9-7 15 0 9 0 19 1 29 0 2 0 3 1 4 4 5 5 11 5 17 0 12 1 25 0 37 0 6 1 12 5 17 1 1 1 3 2 4z m78-56c0 16 0 31 0 47 0 13 0 27 0 40 0 4-2 5-5 5-6 0-11 0-17 0-8 0-8-1-8-8 0-26 1-51 1-76 0-5-1-9-2-13-3-7-2-11 6-12 7-2 14-2 22-3 1 0 2 2 3 3 1 1 1 3 2 3 7 2 3 7 4 10 0 4-3 4-6 4z m-172 253c1 0 2-1 4-1v-1c-4 0-7 0-11 0-9 0-17-4-23-10-4-5-5-9-5-15 0-24 0-48 0-72 0-10 0-9-10-9-8 1-16 0-25 0-2 0-4-1-2-4 1 0-1-2-1-3-1-3-3-6-3-9-1-7-1-13-2-20-1-9 6-17 15-18 7 0 13 0 19-1 2 0 3 0 4 0 4-1 6-2 6-7-1-50 0-101-1-151 0-29 0-57 0-86-1-6-2-7-8-8-4 0-9 0-14-1-2 0-5 0-7-1-10-3-12-5-12-16 0-8 0-16 0-25 0-11 5-15 16-15 8 0 16 0 24 0 1 0 2 0 3 0 0-2 0-3 0-5 0-21 0-42 0-63 0-4 1-8 1-12 2-12 9-18 22-19 16-1 33-3 49-3 60-1 119-2 179-2 24 0 48 1 72 2 8 0 17 0 25 0 1 0 2 0 2 1 3 2 7 3 11 0 0 0 0 1 1 1-2 3-4 5-6 8 4 1 5 1 6-3 4-6 9-7 15-7 49 0 98-2 146-2 28 0 55 2 82 3 4 1 7 3 12 5-1 1 0 0 0 0-1-6 3-6 7-6 13 0 26 0 39 0 52 0 103 0 155 0 2 0 5 0 8 1 2 0 3 1 5 1 6-7 14-4 22-4 12 1 24 2 36 4 14 3 20 10 20 24 1 20 1 40 2 59 0 5 0 11 1 16 0 5 1 5 6 4 11-2 22-1 34 1-2 1-4 2-6 4 9 6 6 14 7 22 0 4 0 8 0 12 0 8-4 14-13 15-8 1-18 1-27 1-3 0-4 1-4 5 0 35-1 70-1 104 0 36 0 71 0 107 0 11 0 23 0 36 2 0 3 0 5 0 7 0 15 0 23 0 8 0 14 4 17 11 1 1 1 1 2 2v7c-1 0-2 1-2 2-1 2-1 4-1 6 2 8-1 16-3 24-1 1-2 2-3 3-9 0-17 0-26 0 0 0 0 0-1 0-9-2-11 0-11 9-1 15-2 30-3 45-1 10-2 21-4 31-3 11-10 16-21 17-37 2-74 4-111 4-120 0-239 0-359-1q-6 0-11-4c-4 5-9 5-15 4-20 0-41 0-61 0-5 0-10 0-13-5-1 0-2 1-2 2-1 4-4 3-6 3-15 1-29 1-44 1-59 0-118 0-177 0-3 0-5 1-8 1 0 0 0 0 0 1l-40 0z m819-514c0-3-1-5-4-5-4 0-9 0-14 0-88 0-176 0-264 0-46 0-93-1-139-1-4 0-10 1-13-5-1-2-3-2-4 0-1 4-4 5-7 5-18 0-35 1-52 1-49 0-97-1-146-1-25 0-50-1-75-1-2 0-5 0-7 1-4 1-7 1-10-3-1 0-3 0-4 0-6 1-13 3-19 3-10 1-21 1-31 1-6 0-7 2-7 7 0 8-1 17-1 26-1 0-2 0-3 1-1 1-3 2-3 2 0 2 1 4 2 5 3 1 3 3 3 5 1 16 2 31 2 47 0 84 0 168 0 252 0 6-2 11-2 17-1 1-1 2-1 3 3 12 2 23 1 34-1 7-1 15 0 23 0 12 1 25 1 37 0 2 1 3 1 4 9 0 18-1 27-1 112 0 223 0 335 0 87 0 174-1 262-1 45 0 91 1 137 1 2 0 4 1 6 1 1 0 1 1 2 0 6-1 12-3 18-3 5-1 6-2 6-6 0-43 1-86 1-129 0-30 1-60 1-90 1-48 1-96 1-143 0-26 1-52 1-77 0-4 0-7-1-10z" horiz-adv-x="1000" />

<glyph glyph-name="free-fire" unicode="&#xe87c;" d="M558 571c-31 14-61-2-84 14 12 96 138 231 247 265 7-4 4-12 5-18 0-2 0-5 0-8 5-84-6-165-30-246-36-117-64-237-96-356-2-6-3-13-5-22 7-3 14-8 21-9 16-1 33-1 49-2 5-16-2-28-9-41-8-1-15-3-23-4-99-3-323-1-357 4-6 13-1 25 6 39 15 6 32 3 48 4 14 0 25 4 34 17 7 11 18 20 28 29 27 21 54 42 81 63 5 3 9 9 13 14-10 10-20 6-29 6-9 1-19 0-29 0-9 1-19 1-28 2-7 12-3 22 6 30 11 10 23 18 35 27 22 17 44 33 65 50 5 4 8 9 15 17-32 9-61 0-88 7-5 13 2 22 11 29 24 19 49 38 74 57 12 9 24 19 41 32z m-275-716c5 21 10 39 15 57 13 49 26 98 39 147 3 7 4 16 8 23 3 10 11 16 21 16 58 0 115-1 172-2 1 0 2-1 6-4 0-6 2-14 0-21-14-57-29-114-44-171-11-37-26-49-65-50-45-1-90 0-135 1-4 0-8 1-17 4z" horiz-adv-x="1000" />

<glyph glyph-name="pokemon-unite" unicode="&#xe87d;" d="M924 312h-240c-12-51-39-92-84-121-32-20-67-29-105-28-43 1-82 16-115 44-34 27-54 63-64 105h-238c0-2-1-5 0-7 5-47 17-91 36-133 23-49 54-92 93-130 23-22 49-41 76-58 2-1 4-2 6-3 13-9 19-25 15-41-4-15-18-27-34-27-8-1-15 1-22 5-12 8-24 15-36 23-57 41-104 91-140 151-32 52-53 109-64 168-4 22-6 44-7 66 0 11-1 23-1 35 3 84 23 163 65 236 50 87 121 154 210 200 38 19 77 33 119 42 37 8 75 11 113 11 33-1 66-4 98-11 55-12 105-32 153-61 74-44 132-104 175-178 28-48 47-100 58-154 8-40 10-80 8-121-4-89-30-171-79-246-41-63-94-115-158-155-4-2-8-5-12-7-18-9-40-3-50 14-10 18-5 39 12 51 15 9 29 18 43 28 54 41 96 92 126 152 20 40 33 83 40 128 1 7 2 15 3 23z m-1 76c-17 216-208 402-452 386-231-16-383-206-393-386h238c16 80 86 144 172 149 36 3 71-5 102-23 50-28 81-70 94-126h239z m-535-38c-1-61 49-111 110-112 62-1 114 48 115 111 0 63-50 113-112 114-63 0-113-50-113-113z m-38-306c0 18 0 36 0 55 0 10 3 19 10 27 10 11 26 14 40 9 15-5 24-18 25-33 0-3 0-5 0-8 0-31 0-62 0-94 1-32 16-56 46-69 46-21 100 12 104 63 0 3 0 7 0 10 0 31 0 62 0 93 0 9 2 16 6 24 9 13 26 19 41 15 16-4 27-18 28-34 0-1 0-2 0-4 0-33 0-66 0-99 0-37-13-70-38-98-27-31-61-48-102-51-71-5-138 42-156 115-2 12-4 24-4 36 0 14 0 28 0 42z" horiz-adv-x="1000" />

<glyph glyph-name="arrow-4" unicode="&#xe87e;" d="M520 716a23 23 0 0 1-16-6 23 23 0 0 1 0-33l305-304h-673a23 23 0 0 1-22-23 23 23 0 0 1 22-23h673l-305-304a23 23 0 0 1 0-33 23 23 0 0 1 32 0l343 343a23 23 0 0 1 0 1 23 23 0 0 1 1 0l0 0a23 23 0 0 1 1 1 23 23 0 0 1 0 1 23 23 0 0 1 1 0 23 23 0 0 1 1 1 23 23 0 0 1 1 2l0 0a23 23 0 0 1 1 2 23 23 0 0 1 0 2l0 0 0 0a23 23 0 0 1 1 2 23 23 0 0 1 0 1 23 23 0 0 1 0 1 23 23 0 0 1 0 1l0 0a23 23 0 0 1 0 2l0 0 0 0a23 23 0 0 1 0 2l0 0a23 23 0 0 1 0 2 23 23 0 0 1 0 1 23 23 0 0 1-1 1 23 23 0 0 1 0 1 23 23 0 0 1 0 2l0 0a23 23 0 0 1-1 2l0 0a23 23 0 0 1-1 1 23 23 0 0 1 0 1l0 0a23 23 0 0 1-2 1l0 0a23 23 0 0 1-1 2l0 0a23 23 0 0 1-1 0l-343 344a23 23 0 0 1-16 6z" horiz-adv-x="1000" />

<glyph glyph-name="magic" unicode="&#xe87f;" d="M545 355c0 6-1 11-1 17-1 6-1 12-2 19 0 5-1 11-1 16-1 8-2 15-2 22-1 9-2 17-2 25 0 3 0 6-1 9 0 8-1 16-2 24 0 5-1 11-1 16-1 9-2 18-2 27-1 2-1 5-1 7-1 9-2 17-2 25-1 6-1 12-1 17-1 8-2 16-3 23 0 7 0 13-1 19 0 3-1 5-1 8 0 1-1 1-1 2-1-1-2-1-2-2 0-2-1-5-1-7 0-8-1-15-1-23 0-2-1-5-1-8 0-6-1-12-1-18-1-5-1-10-2-15 0-4-1-9-1-13-1-5-1-9-2-14 0-5-1-11-2-16-1-8-2-15-3-22-1-9-3-17-4-26-2-8-3-17-5-25-3-10-5-19-8-28-2-6-5-11-7-17-3 1-5 2-6 2-10 4-19 7-29 10-2 1-4 2-5 5-2 8-5 17-7 26-3 11-5 22-7 33-2 7-3 14-4 22-1 5-2 10-3 16-1 6-2 11-2 17-1 5-2 10-2 15-1 7-2 14-3 21-1 6-1 12-2 18 0 7-1 14-2 20 0 5-1 9-1 13-1 5-1 10-2 15 0 5-1 11-1 17-1 6-1 12-2 18 0 3 0 7 0 10-1 6-2 11-2 17 0 4 0 9-1 13 0 3 0 7 0 10-1 7-1 15-2 22 0 5-1 11-1 16 0 1 0 1-1 2 0 0-1-1-2-1 0-1 0-2 0-3-1-9-1-18-2-27 0-8 0-16-1-24 0-7 0-15-1-22 0-9-1-19-2-28 0-8-1-16-1-23-1-10-2-19-3-29 0-6-1-13-1-19-1-8-2-15-3-23-1-8-1-16-2-24-2-9-3-18-4-26-2-12-3-24-6-35-2-13-6-26-9-39 0-2-1-3-3-2-7 0-14 2-21 2-6 1-12 1-18 2-4 0-4 0-5 4-1 4-2 8-3 12-1 5-2 10-3 15-1 7-2 13-3 19-1 6-2 13-3 20-1 5-2 10-2 15-1 6-2 13-3 20-1 6-1 12-2 18-1 6-1 13-2 19-1 7-1 14-2 21-1 8-1 15-2 23-1 7-1 13-1 19-1 9-2 18-3 26 0 8-1 16-1 24-1 9-1 19-2 28 0 7-1 14-1 21 0 7-1 14-1 21-1 8-1 15-1 23-1 9-1 17-2 26 0 9 0 17 0 26 0 4 0 9 0 13 0 2 0 3-2 3-2 0-3-1-3-3 0-7 0-15 0-22 0-4-1-9-1-13 0-10-1-20-1-29 0-9-1-18-1-27-1-8-1-15-1-23-1-7-1-14-1-21-1-6-1-13-2-20 0-9-1-19-1-28-1-8-1-16-2-24-1-7-1-15-2-22 0-8-1-16-1-24-1-3-1-5-1-8-1-5-1-10-2-16 0-4 0-8-1-13 0-4-1-8-2-13 0-4 0-8-1-12 0-6-1-11-2-16-1-8-2-16-3-23-2-10-3-20-5-30-2-9-4-18-6-27 0-1-1-2-2-2-3 0-7 0-11 0-4-1-9-2-14-2-6-1-12-1-18-2-1 0-2 1-2 2-2 6-3 11-5 17-2 9-3 18-5 26-1 7-3 14-4 21-1 6-2 12-2 18-1 4-2 9-2 14-1 6-2 12-2 17-1 4-1 9-2 13 0 6-1 12-2 18 0 5-1 9-1 14-1 5-1 11-2 16 0 4 0 7 0 11-1 8-2 15-3 23 0 7 0 14-1 20 0 4 0 8 0 11-1 7-2 14-2 21-1 7-1 13-1 20-1 10-1 20-1 30 0 2 0 5 0 8-1 2 0 4-3 5-1-2-2-4-2-7 0-7-1-14-1-21-1-9-1-19-2-29 0-7-1-15-1-22 0-2 0-5-1-7 0-7-1-13-1-20-1-5-1-11-1-16-1-6-2-11-2-17-1-5-1-10-1-15-1-6-2-13-3-20 0-4 0-9-1-13-1-6-1-11-2-17-1-5-1-10-2-15-1-7-2-13-3-20-1-7-1-14-3-21-1-7-2-14-4-21-2-11-4-22-6-32-3-10-6-20-9-30 0-1-1-2-2-2-11-4-22-7-33-12-3-1-4 0-5 3-3 8-6 16-9 25-3 9-5 17-7 26-2 9-3 18-5 26-1 7-3 15-4 22-1 9-2 19-3 28-1 9-3 18-4 27-1 7-1 15-2 23-1 8-2 17-2 26-1 8-1 16-2 24 0 1-1 2-1 3-1-1-2-2-2-3-1-4-1-8-2-13 0-6 0-12-1-18 0-8-1-16-2-24-1-9-1-18-2-26 0-3 0-6 0-8-1-6-1-12-2-18 0-3 0-7-1-10 0-3 0-6 0-9-1-6-1-12-2-18 0-4 0-7-1-11 0-6-1-12-1-17 0-4 0-8-1-12 0-7-1-15-2-23-1-7-1-15-2-22 0-7-1-15-1-22-1-6-1-13-2-19 0-3 0-6-1-9 0-3 0-4 3-5 3-1 6-2 9-3 30-14 58-32 84-53 18-15 35-31 50-49 13-15 24-30 35-46 14-21 26-43 36-67 7-14 13-29 18-44 4-11 7-23 11-34 2-9 4-17 6-26 2-9 4-18 6-28 1-7 3-14 4-21 1-8 2-15 3-23 1-8 2-16 2-24 1-7 2-14 2-21 1-10 1-19 1-28 0-8 0-15 0-23 0-1 1-2 1-4 4 0 4 0 4 3 0 6-1 11-1 17 0 4 1 8 1 12 0 7 1 13 1 20 1 10 1 19 2 29 1 7 2 15 3 23 1 8 2 17 4 25 2 12 4 23 6 34 3 14 7 27 11 41 4 14 9 28 14 42 4 11 9 22 13 32 15 32 33 62 54 90 18 23 37 44 58 62 16 15 34 27 52 39 16 10 33 19 51 25 1 1 1 2 1 3 0 3 0 5 0 8z" horiz-adv-x="545" />

<glyph glyph-name="twitter" unicode="&#xe881;" d="M760 756h138l-301-344 354-468h-277l-218 284-248-284h-138l322 368-340 444h285l196-259 227 259z m-48-730h76l-493 652h-82l499-652z" horiz-adv-x="1000" />

<glyph glyph-name="street-fighter" unicode="&#xe882;" d="M5 599c-5-3-5-6-5-10 0-58 1-116 1-174 0-42-1-84-1-126 0-60 0-119 0-178 0-7 2-11 9-15 17-9 34-19 51-29 34-19 68-39 102-58 58-33 117-66 176-99 10-6 20-12 31-18 0 306 0 610 0 916-1-1-2-1-2-2-121-69-241-138-362-207z m869-338c0 4-2 6-5 7-13 8-26 16-40 23-69 40-138 79-206 119-51 28-101 57-151 85-12 7-24 15-38 22 0-26 0-51 0-76 0-56 0-113 0-169 0-5 1-7 5-9 29-16 58-33 87-49 18-10 35-20 53-31-22-13-43-25-65-37-25-15-51-29-76-44-3-1-4-3-4-6 0-39 0-79 0-119 0-23 0-47 0-71 0-18 0-37 0-56 2-1 3 1 4 1 21 12 41 23 61 35 44 25 87 50 131 75 29 17 58 33 87 49 34 20 67 39 101 58 16 9 33 19 49 28 4 2 7 4 7 10 0 52 0 104 0 155z m0 332c0 4-1 7-5 9-71 41-143 81-214 122-40 23-79 46-119 68-34 19-67 38-102 58 0-2 0-3 0-4 0-81 0-162 0-243 0-4 2-6 5-7 32-19 65-37 97-56 100-56 200-113 300-169 12-7 25-14 38-22 0 3 0 4 0 5 0 80 0 159 0 239z" horiz-adv-x="874" />

<glyph glyph-name="add-fill" unicode="&#xe906;" d="M488 683c14 0 26-9 28-21l1-4 0-266 279 0c14 0 26-13 26-29 0-15-9-27-21-29l-5-1-279 0 0-291c0-14-13-25-29-25-15 0-27 9-29 21l-1 4 0 291-277 0c-14 0-26 14-26 30 0 14 9 26 21 28l5 1 277 0 0 266c0 14 13 25 30 25z m0 0" horiz-adv-x="1000" />

<glyph glyph-name="calendar-1" unicode="&#xe94b;" d="M875 46c0-17-13-29-29-29l-691 0c-17 0-30 12-30 29l0 551c0 16 13 29 30 29l118 0 0 28c0 16 13 29 29 29 16 0 30-13 30-29l0-28 337 0 0 28c0 16 13 29 29 29 16 0 30-13 30-29l0-28 118 0c16 0 29-13 29-29z m-59 325l-632 0 0-297 632 0z m-543 197l-89 0 0-135 632 0 0 135-88 0 0-29c0-16-14-29-30-29-16 0-29 13-29 29l0 29-337 0 0-29c0-16-14-29-30-29-16 0-29 13-29 29z m0 0" horiz-adv-x="1000" />

<glyph glyph-name="calendar-5" unicode="&#xe953;" d="M894 729c8 0 14-6 14-14v-788c0-8-6-15-14-15h-788c-8 0-14 7-14 15v788c0 8 6 14 14 14h102v44c0 8 7 15 15 15h102c8 0 15-7 15-15v-44h320v44c0 8 7 15 15 15h102c8 0 15-7 15-15v-44h102z m-204 29v-87h73v87h-73z m-452 0v-87h72v87h-72z m-117-58v-131h758v131h-87v-44c0-8-7-14-15-14h-102c-8 0-15 6-15 14v44h-320v-44c0-8-7-14-15-14h-102c-8 0-15 6-15 14v44h-87z m0-758h758v598h-758v-598z m496 510h160v-423h-554v423h394z m-102-29v-102h102v102h-102z m102-233v102h-102v-102h102z m-234 102v-102h102v102h-102z m0 131v-102h102v102h-102z m-131 0v-102h102v102h-102z m0-131v-102h102v102h-102z m102-234v102h-102v-102h102z m131 0v102h-102v-102h102z m132 0v102h-102v-102h102z m131 0v102h-102v-102h102z m0 132v102h-102v-102h102z m0 233h-102v-102h102v102z" horiz-adv-x="1000" />

<glyph glyph-name="contact" unicode="&#xe97e;" d="M900 764c21 0 37-16 37-37v-451c0-20-16-37-37-37h-570c6-6 12-13 19-19 63-63 94-80 119-94l8-4c6-4 14-2 18 3l40 52c14 18 39 22 58 9l138-91c19-13 25-39 13-59l-35-57c-11-19-29-33-50-39-17-5-35-7-54-7-79 0-193 42-347 195-193 193-208 325-187 401 6 21 19 39 38 50l58 35c19 12 45 6 58-14l28-41v168c0 21 17 37 37 37h611z m-446-664c-26 15-60 33-126 99-66 66-84 99-98 126l-4 8c-11 18-6 42 11 55l51 40c6 4 8 12 3 19l-91 137c-5 7-13 8-19 5l-58-35c-12-7-21-19-25-33-19-69-3-189 180-372s304-200 373-181c13 4 25 13 32 26l35 57c4 7 2 15-4 19l-138 92c-6 4-14 3-19-3l-40-51c-13-17-37-22-55-12l-8 4z m454 176h0v451c0 2-1 4-2 6s-4 2-6 2h-611c-2 0-4-1-6-2s-2-4-2-6v-212l35-52c12-19 8-44-10-58l-51-40c-6-5-7-12-4-18l4-8c14-25 30-49 49-71h596c5 0 8 4 8 8z m-58 421c6 5 15 3 20-3 3-3 4-7 3-11s-2-7-5-9l-244-185c-18-13-41-13-59 0l-243 185c-7 4-8 14-3 20 5 6 14 8 20 3l244-185c7-5 16-5 23 0l244 185z m-380-210c6 6 15 6 20 1 6-6 6-14 2-20l-150-160c-5-6-15-7-20-1s-7 15-1 20l149 160z m250 0l149-160c6-5 6-15 0-20-6-6-15-5-21 1l-149 160c-6 5-5 15 0 20 6 6 16 5 21-1z" horiz-adv-x="1000" />

<glyph glyph-name="dropdown2" unicode="&#xe9ae;" d="M514 489l273-274c8-7 8-20 0-27s-20-8-27 0l-260 259-260-259c-7-8-20-8-27 0-4 4-6 9-6 14s2 10 6 13l273 274c8 7 20 7 28 0z" horiz-adv-x="1000" />

<glyph glyph-name="id-card-1" unicode="&#xea2e;" d="M748 729c24 0 44-19 44-44v-729c0-24-20-44-44-44h-496c-24 0-44 20-44 44v729c0 25 20 44 44 44h181l-19 37c-4 8-1 16 7 20 7 4 16 1 19-7l25-50h72l39 53c5 6 14 7 20 3 7-5 8-14 3-21l-26-35h175z m15-773v729c0 9-7 15-15 15h-268l8-16c4 1 8 1 12 1 32 0 58-26 58-58s-26-58-58-58c-32 0-58 26-58 58 0 18 8 33 20 44l-15 29h-195c-8 0-14-6-14-15v-729c0-8 6-14 14-14h496c8 0 15 6 15 14z m-287 687c-3-4-5-10-5-16 0-16 13-29 29-29s29 13 29 29c0 16-12 28-27 29l11-22c4-8 1-16-6-20-3-1-5-1-7-1-5 0-10 2-13 8l-11 22z m170-453c8 0 14-7 14-15s-6-15-14-15h-292c-8 0-14 7-14 15s6 15 14 15h292z m0-73c8 0 14-7 14-15s-6-14-14-14h-292c-8 0-14 6-14 14s6 15 14 15h292z m0-73c8 0 14-7 14-15s-6-14-14-14h-292c-8 0-14 6-14 14s6 15 14 15h292z m-58 204h-234v292h292v-292h-58z m-146 29h116c0 32-26 58-58 58s-58-26-58-58z m14 131c0-24 20-43 44-43s44 19 44 43c0 25-20 44-44 44s-44-19-44-44z m-73-131h30c0 32 16 59 42 75-17 13-28 33-28 56 0 41 33 73 73 73s73-32 73-73c0-23-11-43-28-56 26-16 43-43 43-75h29v233h-234v-233z" horiz-adv-x="1000" />

<glyph glyph-name="id-card-2" unicode="&#xea30;" d="M748 729c24 0 44-19 44-44v-729c0-24-20-44-44-44h-496c-24 0-44 20-44 44v729c0 25 20 44 44 44h181l-19 37c-4 8-1 16 7 20 7 4 16 1 19-7l25-50h72l39 53c5 6 14 7 20 3 7-5 8-14 3-21l-26-35h175z m-496-29c-8 0-14-6-14-15v-481h118c4 17 15 32 31 41l55 27v5c-24 13-41 34-50 64-14 7-23 22-23 38v15c0 13 6 26 16 34 2 14 6 27 11 38 2 6 4 10 5 13 4 8 4 8 1 23-1 7-2 13-3 18-1 8 4 16 11 19 7 3 16 0 20-6 3-4 8-7 14-11 16-11 34-12 47-11 3 0 6 0 9 0 67 0 105-28 115-83 10-8 16-21 16-34v-15c0-16-9-31-23-38-9-30-26-51-50-64v-6l53-27c17-8 28-23 33-40h119v481c0 9-7 15-15 15h-268l8-16c4 1 8 1 12 1 32 0 58-26 58-58s-26-58-58-58c-32 0-58 26-58 58 0 18 8 33 20 44l-15 29h-195z m224-57c-3-4-5-10-5-16 0-16 13-29 29-29s29 13 29 29c0 16-12 28-27 29l11-22c4-8 1-16-6-20-3-1-5-1-7-1-5 0-10 2-13 8l-11 22z m-20-397l-56-27c-6-4-10-9-13-15h226c-3 6-8 11-15 14l-55 28c-8 5-14 14-14 23v27l9 4c22 9 37 27 44 55l2 8 8 2c6 2 10 8 10 14v15c0 5-3 10-8 13l-7 3 0 8c-6 44-32 64-87 64-2 0-5 0-7 0-22-2-43 2-60 12 1-11-1-17-6-27-1-3-2-7-4-12-5-11-8-23-10-37l0-8-7-3c-5-3-8-8-8-13v-15c0-6 4-12 10-14l8-2 2-8c8-28 22-46 44-55l9-4v-26c0-10-6-19-15-24z m292-304c8 0 15 6 15 14v219h-525v-219c0-8 6-14 14-14h496z m-117 131c8 0 15-7 15-15s-7-14-15-14h-262c-8 0-15 6-15 14s7 15 15 15h262z m-204 29c-8 0-14 7-14 15s6 14 14 14h146c8 0 15-6 15-14s-7-15-15-15h-146z m-44-87c8 0 15-7 15-15s-7-15-15-15h-14c-8 0-15 7-15 15s7 15 15 15h14z m88 0c8 0 14-7 14-15s-6-15-14-15h-29c-8 0-15 7-15 15s7 15 15 15h29z m73 0c8 0 14-7 14-15s-6-15-14-15h-15c-8 0-14 7-14 15s6 15 14 15h15z m87 0c8 0 15-7 15-15s-7-15-15-15h-29c-8 0-14 7-14 15s6 15 14 15h29z" horiz-adv-x="1000" />

<glyph glyph-name="id-card-3" unicode="&#xea32;" d="M825 142c6 5 15 5 21 0 2-3 4-7 4-11s-2-7-4-10c-3-3-7-4-11-4s-7 1-10 4c-3 3-4 7-4 10s1 8 4 11z m-418 29c22-10 35-32 35-56v-18c0-11 0-39-146-39s-146 28-146 39v20c0 22 13 43 33 54l55 27v6c-24 13-41 34-50 64-14 7-23 22-23 38v15c0 13 6 25 16 34 2 14 6 26 10 38 3 6 4 10 6 13 4 8 4 8 1 22-1 7-2 14-3 19-1 8 3 15 11 18 7 3 15 1 20-5 3-4 8-8 14-12 16-10 34-11 47-10 3 0 6 0 9 0 67 0 105-28 114-83 11-8 17-21 17-34v-15c0-16-9-31-23-38-9-30-26-51-50-64v-6l53-27z m6-70v14c0 13-7 24-19 30l0 0-55 28c-9 5-14 14-14 23v27l9 3c22 10 36 28 44 56l2 8 8 2c6 2 10 8 10 14v15c0 5-3 10-8 12l-7 4-1 8c-5 44-32 64-86 64-2 0-5 0-7 0-22-2-43 2-60 12 1-11-1-17-6-28-1-2-3-6-5-11-4-11-7-24-9-37l0-8-7-4c-5-2-8-7-8-12v-15c0-6 4-12 10-14l8-2 2-8c7-28 22-46 44-56l9-3v-27c0-9-6-19-15-23l-56-28c-10-5-17-16-17-28v-16c9-6 46-14 117-14s107 8 117 14z m102 263c-8 0-15 7-15 15s7 15 15 15h145c9 0 15-7 15-15s-6-15-15-15h-145z m14-218c8 0 15-7 15-15s-7-15-15-15h-14c-8 0-15 7-15 15s7 15 15 15h14z m88 0c8 0 14-7 14-15s-6-15-14-15h-29c-9 0-15 7-15 15s6 15 15 15h29z m73 0c8 0 14-7 14-15s-6-15-14-15h-15c-8 0-15 7-15 15s7 15 15 15h15z m87 0c8 0 15-7 15-15s-7-15-15-15h-29c-8 0-15 7-15 15s7 15 15 15h29z m58 160c9 0 15-6 15-15s-6-14-15-14h-320c-8 0-15 6-15 14s7 15 15 15h320z m0-87c9 0 15-7 15-15s-6-15-15-15h-320c-8 0-15 7-15 15s7 15 15 15h320z m34 364c38 0 69-30 69-68v-476c0-38-31-68-69-68h-738c-38 0-68 30-68 68v476c0 38 30 68 68 68h267v112c0 19 15 34 34 34h136c19 0 34-15 34-34v-112h267z m-442 112v-195c0-2 2-4 5-4h136c3 0 5 2 5 4v195c0 3-2 5-5 5h-136c-3 0-5-2-5-5z m481-656v476c0 22-17 39-39 39h-267v-54c0-18-15-33-34-33h-136c-19 0-34 15-34 33v54h-267c-22 0-39-17-39-39v-476c0-21 17-39 39-39h738c22 0 39 18 39 39z m-408 530c-32 0-58 26-58 58s26 58 58 58c32 0 58-26 58-58s-26-58-58-58z m0 87c-16 0-29-13-29-29s13-29 29-29c16 0 29 13 29 29s-13 29-29 29z" horiz-adv-x="1000" />

<glyph glyph-name="id-card-4" unicode="&#xea34;" d="M876 671c34 0 62-28 62-62v-518c0-34-28-62-62-62h-752c-34 0-61 28-61 62v518c0 34 27 62 61 62h752z m32-580v518c0 18-14 33-32 33h-752c-18 0-32-15-32-33v-518c0-18 14-33 32-33h752c18 0 32 15 32 33z m-515 168c21-11 34-32 34-56v-18c0-12 0-39-146-39s-146 27-146 39v19c0 23 13 44 33 55l55 27v6c-24 13-40 34-50 63-14 8-23 22-23 39v14c0 14 6 26 17 34 2 14 5 27 10 39 2 5 4 9 5 12 4 9 4 9 1 23-1 7-2 14-2 19-1 8 3 15 10 18 8 3 16 1 21-5 3-4 7-8 13-12 16-11 34-12 47-11 3 1 6 1 9 1 67 0 106-28 115-83 10-9 17-21 17-35v-14c0-17-9-31-24-39-9-29-26-50-49-63v-6l53-27z m5-71v15c0 13-7 24-18 30l-55 28c-9 4-15 13-15 23v26l9 4c22 10 37 28 44 56l2 8 8 2c6 2 10 8 10 14v14c0 6-3 11-8 13l-6 4-1 7c-5 45-32 65-87 65-2 0-4-1-7-1-22-1-43 3-60 13 1-12 0-17-5-28-2-3-3-6-5-11-5-11-8-24-9-37l-1-8-7-4c-5-2-8-7-8-13v-14c0-6 4-12 11-14l7-2 2-8c8-28 22-46 44-56l9-4v-26c0-10-6-19-14-23l-57-28c-10-5-16-17-16-29v-16c9-5 46-13 116-13s108 8 117 13z m102 264c-8 0-15 7-15 15s7 14 15 14h146c8 0 14-6 14-14s-6-15-14-15h-146z m204 0c-8 0-14 7-14 15s6 14 14 14h15c8 0 14-6 14-14s-6-15-14-15h-15z m-189-219c8 0 14-6 14-14s-6-15-14-15h-15c-8 0-15 7-15 15s7 14 15 14h15z m87 0c8 0 15-6 15-14s-7-15-15-15h-29c-8 0-15 7-15 15s7 14 15 14h29z m73 0c8 0 15-6 15-14s-7-15-15-15h-15c-8 0-14 7-14 15s6 14 14 14h15z m88 0c8 0 14-6 14-14s-6-15-14-15h-30c-8 0-14 7-14 15s6 14 14 14h30z m48-4c5 6 15 6 20 0 3-3 4-6 4-10s-1-8-4-11c-3-2-6-4-10-4s-8 2-10 4c-3 3-5 7-5 11s2 7 5 10z m10 165c8 0 14-7 14-15s-6-14-14-14h-321c-8 0-15 6-15 14s7 15 15 15h321z m0-88c8 0 14-6 14-14s-6-15-14-15h-321c-8 0-15 7-15 15s7 14 15 14h321z" horiz-adv-x="1000" />

<glyph glyph-name="id-card-5" unicode="&#xea36;" d="M876 671c34 0 62-28 62-62v-518c0-34-28-62-62-62h-752c-34 0-61 28-61 62v518c0 34 27 62 61 62h752z m-770-117c-8 0-14 7-14 15v-88c0 8 6 15 14 15s15-7 15-15h58c0 8 7 15 15 15s14-7 14-15h59c0 8 6 15 14 15s15-7 15-15h58c0 8 7 15 15 15s14-7 14-15h59c0 8 6 15 14 15s15-7 15-15h58c0 8 7 15 15 15s14-7 14-15h59c0 8 6 15 14 15s15-7 15-15h58c0 8 7 15 15 15s14-7 14-15h59c0 8 6 15 14 15s15-7 15-15h58c0 8 7 15 15 15s14-7 14-15v88c0-8-6-15-14-15s-15 7-15 15h-58c0-8-7-15-15-15s-14 7-14 15h-59c0-8-6-15-14-15s-15 7-15 15h-58c0-8-7-15-15-15s-14 7-14 15h-59c0-8-6-15-14-15s-15 7-15 15h-58c0-8-7-15-15-15s-14 7-14 15h-59c0-8-6-15-14-15s-15 7-15 15h-58c0-8-7-15-15-15s-14 7-14 15h-59c0-8-6-15-14-15s-15 7-15 15h-58c0-8-7-15-15-15z m802-463v361h-816v-361c0-18 14-33 32-33h752c18 0 32 15 32 33z m-816 507h816v11c0 18-14 33-32 33h-752c-18 0-32-15-32-33v-11z m709-496h-257v321h321v-321h-64z m-170 29v0h146c0 7-4 12-9 15l-37 19c-8 4-12 11-12 19v21l9 4c13 6 22 17 26 34l2 8 8 2c2 1 3 2 3 5v9c0 2-1 4-2 5l-7 3-1 8c-2 19-10 38-53 38-1 0-3 0-4 0-13-1-25 1-36 5 0-4-1-7-4-12-1-2-2-4-3-7-3-7-5-15-6-24l0-8-7-3c-2-1-3-3-3-5v-9c0-3 2-4 4-5l7-2 2-8c5-17 14-28 27-34l9-4v-20c0-9-5-16-13-20l-37-19c-5-2-9-8-9-15v0z m-58 263v-263h29v0c0 17 9 33 24 41l33 16c-15 9-25 23-31 41-10 6-16 17-16 29v9c0 10 4 19 11 26 2 9 4 17 7 25 2 3 3 6 4 8 1 2 1 3 1 4 1 0 0 2-1 8-1 5-1 10-2 13-1 8 3 15 10 17 7 3 15 1 20-5 1-1 3-3 7-6 10-7 21-7 29-7 2 0 4 0 6 0 57 0 76-29 81-57 7-7 12-16 12-26v-9c0-12-7-23-17-29-6-18-16-32-30-41l31-16c15-8 25-23 25-41h29v263h-262z m-423-29c-8 0-15 6-15 14s7 15 15 15h131c8 0 15-7 15-15s-7-14-15-14h-131z m190 0c-8 0-15 6-15 14s7 15 15 15h131c8 0 14-7 14-15s-6-14-14-14h-131z m-190-73c-8 0-15 6-15 14s7 15 15 15h15c8 0 14-7 14-15s-6-14-14-14h-15z m102 0h-29c-8 0-15 6-15 14s7 15 15 15h29c8 0 15-7 15-15s-7-14-15-14z m58 0c-8 0-14 6-14 14s6 15 14 15h15c8 0 15-7 15-15s-7-14-15-14h-15z m103 0h-30c-8 0-14 6-14 14s6 15 14 15h30c8 0 14-7 14-15s-6-14-14-14z m48 25c5 5 15 5 20 0 3-3 4-7 4-11s-1-7-4-10c-3-3-6-4-10-4s-8 1-10 4c-3 3-5 6-5 10 0 4 2 8 5 11z m-229-75c17 9 32-16 15-25-31-17-33-54-34-86 0-13-15-18-25-10-14 11-27 23-41 34-14 12 6 33 21 21 6-5 12-10 18-15 4 33 15 65 46 81z m194-43c13-1 20-7 28-17 11-15-15-30-26-15-2 4-49-15-61-13-11 3-20 8-27 16-31-17-66-26-93 4-13 14 8 34 21 21 21-24 48-6 69 7 7 4 16 1 20-5 16-30 48 3 69 2z m249 311c-8 0-15 7-15 15s7 15 15 15c8 0 15-7 15-15s-7-15-15-15z m88 0c-9 0-15 7-15 15s6 15 15 15c8 0 14-7 14-15s-6-15-14-15z m-350 0c-9 0-15 7-15 15s6 15 15 15c8 0 14-7 14-15s-6-15-14-15z m87 0c-8 0-15 7-15 15s7 15 15 15c8 0 15-7 15-15s-7-15-15-15z m88 0c-9 0-15 7-15 15s6 15 15 15c8 0 14-7 14-15s-6-15-14-15z m262 0c-8 0-15 7-15 15s7 15 15 15c8 0 15-7 15-15s-7-15-15-15z m-525 0c-8 0-15 7-15 15s7 15 15 15c8 0 15-7 15-15s-7-15-15-15z m-175 0c-8 0-15 7-15 15s7 15 15 15c8 0 15-7 15-15s-7-15-15-15z m88 0c-9 0-15 7-15 15s6 15 15 15c8 0 14-7 14-15s-6-15-14-15z" horiz-adv-x="1000" />

<glyph glyph-name="internet-fill" unicode="&#xea41;" d="M515 365v165c47 1 94 9 139 22 24-59 38-122 40-187h-179z m155 223c-34 72-84 136-147 188l8 6c106-7 202-53 273-124l-9-7c-39-27-81-48-125-63z m-155 156c53-47 96-103 126-165-41-11-83-18-126-19v184z m172-591c22 57 35 119 36 182h210c-4-99-41-190-100-261l-13 9c-41 30-86 53-133 70z m-482 498l-11 7c72 71 168 117 274 124l8-6c-63-52-113-116-147-188-44 15-85 36-124 63z m280 93v-184c-43 1-86 8-127 19 30 62 73 118 127 165z m-209-409c2-63 14-125 36-182-47-17-92-40-133-70l-13-9c-59 71-96 162-99 261h209z m41 226c-25-61-39-128-41-196h-209c3 104 43 198 107 270l14-9c40-28 84-49 129-65z m-11-196c2 65 15 128 40 187 45-13 91-21 139-22v-165h-179z m169-439l-11-8c-109 9-206 59-278 133l11 8c39 28 82 50 127 66 33-76 85-144 151-199z m10 259c-50-1-98-9-145-23-21 55-32 113-34 173h179v-150z m317-126l11-8c-71-74-169-124-278-133l-10 8c66 55 117 123 151 199 45-16 87-38 126-66z m10 567l13 10c64-73 104-167 108-271h-210c-1 68-15 135-41 196 46 16 89 38 130 65z m-327-670c-58 50-102 111-133 179 43 12 87 19 133 20v-199z m209 379c-2-60-14-118-35-173-47 14-95 22-144 23v150h179z m-47-200c-30-68-75-129-132-179v199c45-1 90-8 132-20z" horiz-adv-x="1000" />

<glyph glyph-name="link-fill" unicode="&#xea51;" d="M874 728c-36 36-83 55-133 55-50 0-97-19-133-55l-131-131c-47-47-64-113-50-174-13 3-27 5-42 5-50 0-97-20-132-55l-131-131c-74-73-74-192 0-266 35-35 82-55 132-55s98 20 133 55l131 131c47 48 64 114 50 175 14-3 28-5 42-5 50 0 97 20 133 55l131 131c73 73 73 192 0 265z m-397-580l-131-131c-24-24-57-38-92-38s-67 14-92 38c-50 51-50 133 0 184l131 131c25 24 58 38 92 38 25 0 49-7 69-20l-112-112c-11-11-11-29 0-41 6-5 13-8 21-8s15 3 20 8l112 112c32-50 26-117-18-161z m356 356l-131-131c-25-25-57-38-92-38-25 0-49 7-69 20l112 112c11 11 11 29 0 41-11 11-30 11-41 0l-112-112c-31 50-26 117 18 161l131 131c25 24 57 37 92 37 35 0 67-13 92-37s38-57 38-92c0-35-14-68-38-92z" horiz-adv-x="1000" />

<glyph glyph-name="menu" unicode="&#xea88;" d="M500 788c241 0 438-197 438-438s-197-438-438-438c-241 0-437 197-437 438s196 438 437 438z m0-844c224 0 406 182 406 406s-182 406-406 406c-224 0-406-182-406-406s182-406 406-406z m-203 578c-9 0-16 7-16 16s7 15 16 15h406c9 0 16-7 16-15s-7-16-16-16h-406z m469-219c8 0 15-7 15-15s-7-16-15-16h-532c-8 0-15 7-15 16s7 15 15 15h532z m0 125c8 0 15-7 15-15s-7-16-15-16h-532c-8 0-15 7-15 16s7 15 15 15h532z m-63-250c9 0 16-7 16-15s-7-16-16-16h-406c-9 0-16 7-16 16s7 15 16 15h406z" horiz-adv-x="1000" />

<glyph glyph-name="multiply-fill" unicode="&#xea99;" d="M921 709l-74 74-353-352-353 352-74-74 353-353-353-353 74-74 353 353 353-353 74 74-353 353z" horiz-adv-x="1000" />

<glyph glyph-name="mute-fill" unicode="&#xeaa3;" d="M814 664c5-6 5-15 0-21l-607-606c-3-3-7-5-10-5s-8 2-10 5c-6 5-6 14 0 20l606 607c6 5 15 5 21 0z m16-33c67-78 103-177 103-281 0-116-45-225-127-306s-190-127-306-127c-104 0-202 36-281 103l196 196 188-176c1 0 2-1 3-1 7-5 15-7 23-7 24 0 44 20 44 45v397l157 157z m-545-411h36l-151-151c-67 79-103 177-103 281 0 116 45 225 127 306s190 127 306 127c104 0 202-36 281-103l-108-107v64c0 25-20 45-44 45-8 0-16-2-23-6-1-1-2-1-3-2l-191-178c-2-1-4-2-7-2h-120c-25 0-45-20-45-44v-185c0-25 20-45 45-45z" horiz-adv-x="1000" />

<glyph glyph-name="notepad-2" unicode="&#xeac2;" d="M281 510c-8 0-14 7-14 15s6 15 14 15h132c8 0 14-7 14-15s-6-15-14-15h-132z m0-102c-8 0-14 7-14 15s6 15 14 15h73c8 0 15-7 15-15s-7-15-15-15h-73z m190 0c-8 0-15 7-15 15s7 15 15 15h102c8 0 15-7 15-15s-7-15-15-15h-102z m-48 5c-3-3-7-5-10-5-4 0-8 2-11 5-2 2-4 6-4 10 0 4 2 8 4 10 6 6 15 6 21 0 3-2 4-6 4-10 0-4-1-8-4-10z m208-5c-4 0-7 2-10 5-3 2-4 6-4 10 0 4 1 8 4 10 5 6 15 6 21 0 2-2 4-6 4-10 0-4-2-8-4-10-3-3-7-5-11-5z m-306-87c0 8 7 14 15 14h102c8 0 14-6 14-14s-6-15-14-15h-102c-8 0-15 7-15 15z m-33-10c-3-3-7-5-11-5s-7 2-10 5c-3 2-4 6-4 10 0 4 1 7 4 10 5 6 15 6 21 0 2-3 4-6 4-10 0-4-2-8-4-10z m70-65c17 9 31-17 15-25-32-17-34-54-35-86 0-13-15-18-25-10-13 11-27 23-40 34-15 12 6 33 20 21 6-5 12-10 18-15 4 33 15 64 47 81z m97-58c15 3 31-2 39-16 9-17-16-31-25-15-5 9-27-8-33-10-8-3-16-5-25-4-17 3-31 13-39 29-8 16 17 31 25 14 15-29 38-3 58 2z m406 600c24 0 43-20 43-44v-689l-58-103v-25c0-8-6-15-15-15s-14 7-14 15v25l-15 26v-66h-714v846h277v15c0 8 6 15 14 15h132c8 0 14-7 14-15v-15h236c6 17 22 30 41 30h59z m-73-132v-29h87v29h-87z m-292 102h-102v-43h102v43z m-131-29h-73v-58h306v58h-73v-44h-160v44z m-88-87h-14v14h-73v-641h510v641h-73v-14h-350z m496-700v87l-14 26v674h-132v-44h102v-700h-568v700h102v44h-146v-787h656z m25 102l4-7 29-51 34 58h-67z m77 29v525h-87v-525h87z m-87 612h87v59c0 8-6 14-14 14h-59c-8 0-14-6-14-14v-59z" horiz-adv-x="1000" />

<glyph glyph-name="pause-1-fill" unicode="&#xeacb;" d="M500 783c-239 0-433-194-433-433s194-433 433-433c239 0 433 194 433 433s-194 433-433 433z m-43-664h-116v462h116v-462z m202 0h-116v462h116v-462z" horiz-adv-x="1000" />

<glyph glyph-name="placeholder-3-fill" unicode="&#xeae7;" d="M712 695c-57 57-133 88-214 88-81 0-156-31-214-88-105-106-118-304-28-425l242-350 242 350c91 121 77 319-28 425z m-211-321c-61 0-110 49-110 110s49 110 110 110c61 0 110-49 110-110s-49-110-110-110z" horiz-adv-x="1000" />

<glyph glyph-name="placeholder-3" unicode="&#xeae8;" d="M501 597c61 0 111-50 111-112s-50-111-111-111c-61 0-111 50-111 111s50 112 111 112z m0-191c44 0 80 35 80 79s-36 80-80 80c-44 0-80-36-80-80s36-79 80-79z m213 292c107-106 120-307 28-429l-244-353-244 353c-91 122-78 323 28 429 58 58 135 90 216 90 82 0 158-32 216-90z m2-410c83 110 72 291-25 388-51 51-120 80-193 80s-141-29-193-80c-96-97-108-278-25-388l218-316 218 316z" horiz-adv-x="1000" />

<glyph glyph-name="play-button-1-fill" unicode="&#xeaed;" d="M500 783c-239 0-433-194-433-433s194-433 433-433c239 0 433 194 433 433s-194 433-433 433z m225-445l-318-217c-2-1-5-2-8-2-2 0-5 0-7 2-5 2-8 7-8 12v434c0 5 3 10 8 12 5 3 11 3 15 0l318-217c4-3 6-7 6-12s-2-9-6-12z" horiz-adv-x="1000" />

<glyph glyph-name="play-button-1" unicode="&#xeaee;" d="M727 362c4-3 6-7 6-12s-2-9-6-12l-321-219c-2-1-5-2-8-2-2 0-5 0-7 1-5 3-8 8-8 13v438c0 5 3 10 8 13 5 2 11 2 15-1l321-219z m-314-203l280 191-280 191v-382z m87 629c241 0 438-197 438-438s-197-438-438-438c-241 0-437 197-437 438s196 438 437 438z m0-846c225 0 408 183 408 408s-183 408-408 408c-225 0-408-183-408-408s183-408 408-408z" horiz-adv-x="1000" />

<glyph glyph-name="error-fill-2" unicode="&#xeb12;" d="M490 767c-225 0-407-182-407-407s182-406 407-406 406 182 406 406-182 407-406 407z m0-229a31 31 0 0 0 31-31v-167a31 31 0 0 0-63 0v167a31 31 0 0 0 32 31z m0-291a31 31 0 0 0 31-32v0a31 31 0 0 0-63 0v0a31 31 0 0 0 32 32z" horiz-adv-x="1000" />

<glyph glyph-name="teamfight" unicode="&#xeb36;" d="M175 276c6-5 18-13 35-25v-67l227-132-1 33c68-30 121-48 158-55l1 0-95-55-325 189v112z m325 449l325-187v-284c31-23 58-51 81-86-5 3-17 8-34 15 21-48 24-118-53-136-184-43-425 76-516 138 46-19 91-35 133-48l0 29c-43 14-119 44-201 99-74 50-133 113-141 124 12-3 23-5 31-6-28 51 2 104 50 126v29l325 187z m0-40l-290-167v-136c-12 12-31 42-35 62-12-9-14-29-7-48 34-86 178-179 268-228l0 228h-141l-50 110h512l-49-110h-141l0-294c42-9 81-14 117-15 157-8 167 37 141 75l-91-52c-25-2-47-2-68 1l124 70v337l-290 167z" horiz-adv-x="1000" />

<glyph glyph-name="speaker-fill" unicode="&#xeb6f;" d="M500 783c-239 0-433-194-433-433s194-433 433-433c239 0 433 194 433 433s-194 433-433 433z m116-706c0-12-5-24-14-32-8-8-20-13-31-13-8 0-16 2-23 7-1 0-2 1-2 1l-192 178c-2 2-4 2-7 2h-120c-25 0-45 20-45 45v185c0 24 20 44 45 44h120c3 0 5 1 7 2l192 178c0 1 1 1 2 2 7 4 15 6 23 6 24 0 45-20 45-45v-560z m53 147c-3-3-6-4-10-4s-7 1-10 4c-6 6-6 15 0 21 62 62 62 163 0 225-6 5-6 15 0 20s15 6 20 0c73-73 73-192 0-266z" horiz-adv-x="1000" />

<glyph glyph-name="star-fill" unicode="&#xeb75;" d="M914 389c17 16 23 40 15 62-7 22-26 38-49 41l-205 30c-9 2-17 7-21 15l-91 186c-11 21-32 34-55 34-23 0-44-13-55-34l-91-186c-4-8-12-13-21-15l-205-30c-23-3-42-19-49-41-7-22-2-46 15-62l149-145c6-6 9-15 8-24l-36-205c-3-18 2-35 14-49 18-22 49-28 75-15l184 97c7 4 17 4 25 0l183-97c9-5 19-7 29-7 18 0 35 8 46 22 12 14 17 31 14 49l-35 205c-2 9 1 18 7 24l149 145z" horiz-adv-x="1000" />

<glyph glyph-name="stopwatch-3" unicode="&#xeb80;" d="M938 350c0-124-53-236-136-316l1 0-13-12c-31-27-64-49-100-66-2-1-4-2-7-3-3-2-7-4-11-5-4-2-7-3-11-5-2-1-5-2-8-3-4-1-8-3-12-4-2-1-4-2-7-2-4-2-8-3-12-4-3-1-5-2-7-2-4-1-9-2-13-3-2-1-5-2-7-2-4-1-8-2-13-3-2 0-5-1-8-1-4-1-8-1-12-2-3-1-6-1-9-1-4-1-7-1-11-1-4-1-8-1-12-1-3-1-6-1-9-1-7 0-14-1-21-1-7 0-14 1-21 1-3 0-6 0-9 1-4 0-8 0-12 1-3 0-7 0-10 1-4 0-7 1-10 1-4 1-8 1-12 2-3 0-6 1-9 1-4 1-8 2-11 3-3 0-6 1-9 2-4 1-8 2-11 3-3 0-6 1-9 2-3 1-7 2-11 4-3 0-6 1-9 2-3 2-7 3-10 4-3 1-7 3-10 4-3 1-6 2-9 4-4 2-9 4-13 6-2 1-3 1-5 2-36 17-70 40-100 67l-13 11 0 1c-83 79-134 191-134 315 0 241 196 438 437 438s438-197 438-438z m-846 0c0-117 49-223 129-297 81 61 177 93 278 93 102 0 199-33 280-94 79 75 129 181 129 298 0 225-183 408-408 408s-408-183-408-408z m660-321c2 1 3 2 4 4-75 55-163 84-257 84-93 0-181-29-256-84 1-1 3-2 4-3 7-5 13-10 20-15 2-1 4-3 5-4 8-5 16-10 25-15 2-1 4-2 6-3 8-5 17-9 26-14 1 0 3-1 5-2 9-4 19-8 28-11 1-1 2-1 3-1 10-4 21-7 31-10 0 0 0 0 0 0 11-3 21-5 32-7 1 0 3 0 4-1 10-1 21-3 31-4 2 0 3 0 5 0 11-1 21-1 32-1 11 0 21 0 32 1 2 0 3 0 5 0 10 1 21 3 31 4 1 1 2 1 4 1 21 4 42 9 63 17 1 0 1 0 2 0 10 4 19 8 29 12 1 1 3 1 5 2 9 4 17 9 26 14 2 1 4 2 5 3 9 4 17 9 24 14 2 2 4 3 6 4 7 5 13 10 20 15z m-252 642c-8 0-15 6-15 14v30c0 8 7 14 15 14s15-6 15-14v-30c0-8-7-14-15-14z m328-321c0 8 7 15 15 15h29c8 0 15-7 15-15s-7-15-15-15h-29c-8 0-15 7-15 15z m-656 0c0-8-7-15-15-15h-29c-8 0-14 7-14 15s6 15 14 15h29c8 0 15-7 15-15z m492 277c-7 4-9 13-5 20l14 25c4 7 13 9 20 5 7-4 10-13 6-19l-15-26c-3-4-8-7-13-7-2 0-5 1-7 2z m165-458c7-4 10-12 6-19-3-5-8-8-13-8-2 0-5 1-7 2l-25 15c-7 4-10 13-6 20 4 7 13 9 20 5l25-15z m-658 347c-7 4-10 13-6 20s13 9 20 5l26-14c7-4 9-13 5-20-3-5-8-7-13-7-2 0-5 0-7 1l-25 15z m145 117l-15 25c-4 7-1 16 6 20 7 4 16 2 20-5l14-26c4-7 2-16-5-20-2-1-5-2-7-2-5 0-10 3-13 8z m477-127c-5 0-10 3-12 8-5 7-2 16 5 20l25 14c7 4 16 2 20-5 4-7 2-16-5-20l-26-15c-2-1-4-2-7-2z m-581-320c4-7 2-16-5-20l-25-15c-3-1-5-2-8-2-5 0-10 3-12 7-4 7-2 16 5 20l25 15c7 4 16 1 20-5z m288 122c-16 0-30 6-41 17-11 11-17 26-17 41 0 16 6 31 17 42 19 19 51 21 73 7l123 122c5 6 15 6 20 0s6-15 0-20l-123-124c4-8 6-17 6-27 0-15-6-30-17-41-11-11-25-17-41-17z m-21 79c-5-5-8-13-8-21s3-15 8-20c11-11 31-11 42 0 5 5 8 13 8 20s-3 16-8 21c-6 6-13 9-21 9s-15-3-21-9z" horiz-adv-x="1000" />

<glyph glyph-name="substract-fill" unicode="&#xeb8b;" d="M67 391h866v-82h-866v82z" horiz-adv-x="1000" />

<glyph glyph-name="users-1-fill" unicode="&#xebc9;" d="M659 128c45-22 72-67 72-117v-58h-664v61c0 48 26 92 68 114l128 71c13 6 20 19 20 33v48c-9 13-37 52-50 105-14 11-22 27-22 45v57c0 14 5 28 15 38v77c-1 8-4 55 30 94 29 34 78 51 143 51s113-17 143-51c34-39 31-86 30-94v-77c10-10 15-24 15-38v-58c0-22-14-42-34-52-10-30-25-58-43-84-3-5-7-9-10-13v-49c0-15 8-28 21-34l138-69z m209-17c41-20 65-60 65-105v-53h-180v58c0 58-32 110-84 136l-138 69c-6 3-9 9-9 15v41c2 3 4 6 6 9 18 25 32 52 43 81 23 14 37 40 37 67v58c0 17-5 32-14 46v68c1 9 2 36-10 66 16 4 32 6 49 6 171-1 176-174 176-176 2-101 65-202 92-240 8-11 10-24 6-36-3-13-12-23-24-28-19-8-42-10-58-10-8 0-13 0-13 0l-95 0c3-5 7-9 10-11l141-61z" horiz-adv-x="1000" />

<glyph glyph-name="users-1" unicode="&#xebca;" d="M872 109l-142 61c-4 2-7 6-11 12l96 0c1 0 40-4 72 10 12 5 21 15 24 27 4 13 2 26-6 37-27 39-91 140-93 243 0 1-5 176-178 177-25 0-49-4-70-12-5 12-11 24-22 36-29 34-78 51-144 51s-115-17-145-51c-34-40-31-88-30-96v-77c-9-11-15-24-15-38v-59c0-17 8-34 22-45 14-53 42-93 51-106v-48c0-14-7-27-20-34l-130-71c-42-23-68-67-68-115v-62h875v54c0 45-26 86-66 106z m-168-131h-612v33c0 37 20 72 53 90l130 71c22 12 35 34 35 59v59l-3 4c0 0-36 43-50 103l-1 6-5 3c-8 5-13 14-13 24v59c0 8 3 15 9 21l5 4v91l0 2c0 1-5 41 23 73 25 28 66 42 123 42 57 0 98-14 122-41 12-14 18-29 21-42 1-1 1-2 1-3 0-1 0-2 1-3 0-1 0-2 0-4 0 0 0-1 0-2 1-2 1-3 1-5 0 0 0 0 0 0 0-2 0-3 0-5 0 0 0 0 0-1 0-1 0-2 0-3 0 0 0 0 0 0 0-4 0-6 0-6l0-93 5-4c6-6 9-13 9-21v-59c0-12-8-24-20-27l-8-3-2-7c-10-30-24-58-41-83-5-6-9-12-12-16l-4-4v-60c0-4 0-8 1-11 0-1 0-2 0-2 1-3 2-6 3-9 0-1 0-1 0-2 1-3 3-6 4-9 0 0 1 0 1-1 2-3 4-7 7-10l3-4h1c5-5 11-10 17-13l140-69c35-18 56-53 56-92v-30z m204 0h-175v30c0 50-27 95-72 118l-100 50c2 5 2 12 0 18-3 10-13 17-23 17h-33c0 1-1 2-1 4-1 1-2 3-3 5 0 3-1 6-1 10v49c3 4 7 9 11 14 18 25 32 54 43 85 20 9 34 29 34 52v59c0 14-6 27-15 38v77c0 4 1 16-1 32 19 7 40 11 62 11 144-1 149-143 149-149 2-111 69-218 98-259 3-3 3-8 2-12 0-2-2-6-8-9-24-10-57-7-59-7h-100c-10 0-18-5-23-13-5-8-6-18-2-26 5-9 13-21 26-28l142-62c31-15 49-45 49-79v-25z" horiz-adv-x="1000" />

<glyph glyph-name="video-player" unicode="&#xebd6;" d="M614 363c4-3 7-8 7-13s-3-10-7-13l-166-105c-3-2-5-3-8-3-3 0-5 1-8 2-4 3-7 8-7 13v212c0 5 3 10 7 13 5 3 11 2 16-1l166-105z m-159-91l123 78-123 78v-156z m467 425c9 0 16-7 16-15v-664c0-8-7-15-16-15h-844c-9 0-15 7-15 15v664c0 8 6 15 15 15h844z m-709-332v136h-120v-136h120z m-120-30v-136h120v136h-120z m151-151v-151h513v634h-513v-483z m663 181v136h-120v-136h120z m-120-30v-136h120v136h-120z m120 332h-120v-136h120v136z m-814 0v-136h120v136h-120z m0-634h120v136h-120v-136z m814 0v136h-120v-136h120z" horiz-adv-x="1000" />

<glyph glyph-name="warning" unicode="&#xebe2;" d="M500 788c241 0 438-197 438-438s-197-438-438-438c-241 0-437 197-437 438s196 438 437 438z m0-842c223 0 404 181 404 404s-181 404-404 404c-223 0-404-181-404-404s181-404 404-404z m0 673c9 0 17-7 17-17v-370c0-9-8-17-17-17s-17 8-17 17v370c0 10 8 17 17 17z m0-454c9 0 17-8 17-17v-34c0-9-8-16-17-16s-17 7-17 16v34c0 9 8 17 17 17z" horiz-adv-x="1000" />

</font>
</defs>
</svg>
