<?xml version="1.0" standalone="no"?>
<!DOCTYPE svg PUBLIC "-//W3C//DTD SVG 1.1//EN" "http://www.w3.org/Graphics/SVG/1.1/DTD/svg11.dtd">
<svg xmlns="http://www.w3.org/2000/svg">
<metadata>Copyright (C) 2022 by original authors @ fontello.com</metadata>
<defs>
<font id="ifema" horiz-adv-x="1000" >
<font-face font-family="ifema" font-weight="400" font-stretch="normal" units-per-em="1000" ascent="850" descent="-150" />
<missing-glyph horiz-adv-x="1000" />
<glyph glyph-name="rewind-fill" unicode="&#xe800;" d="M925 652c-5 3-11 2-16-1l-401-282v270c0 6-4 11-9 13-5 3-11 3-15-1l-411-289c-4-2-6-7-6-12s2-10 6-12l411-289c2-2 5-3 8-3 3 0 5 1 7 2 5 2 9 7 9 13v270l401-282c3-2 6-3 9-3 3 0 5 1 7 2 5 2 8 8 8 13v578c0 5-3 11-8 13z" horiz-adv-x="1000" />

<glyph glyph-name="push-pin-fill" unicode="&#xe801;" d="M917 442c-1 5-5 9-10 11-44 18-91 27-139 27-75 0-133-22-156-31l-239 203c9 73-31 123-32 125-3 4-8 6-12 6-5 0-9-1-12-4l-245-245c-3-3-5-8-5-12 0-5 3-9 6-12 35-28 78-34 108-34 6 0 12 1 16 1l204-240c-14-36-56-165-5-294 2-5 7-9 12-10 1 0 2-1 3-1 5 0 9 2 12 5l234 234 217-218c3-3 8-4 12-4s8 1 11 4c6 6 6 17 0 23l-218 218 233 233c4 4 6 9 5 15z" horiz-adv-x="1000" />

<glyph glyph-name="push-pin" unicode="&#xe802;" d="M921 442c-1 6-5 10-10 12-139 56-262 11-298-4l-241 205c9 74-31 124-33 127-3 3-7 5-12 6-4 0-9-2-12-5l-247-247c-4-4-5-8-5-13 0-4 2-9 6-12 45-35 103-35 125-33l206-242c-14-36-57-167-5-297 2-5 7-9 12-10 1 0 2-1 4-1 4 0 8 2 11 5l236 236 220-220c3-3 7-4 11-4s9 1 12 4c6 7 6 17 0 23l-220 220 235 236c4 4 6 9 5 14z m-286-250l-218-218c-39 130 16 257 17 258 2 6 2 13-2 17l-219 257c-3 3-7 5-12 5-1 0-2 0-2 0-1 0-52-7-94 16l218 218c10-18 23-52 16-94-1-6 1-12 5-15l256-218c5-4 12-5 18-2 1 1 120 60 257 17l-240-241z" horiz-adv-x="1000" />

<glyph glyph-name="facebook" unicode="&#xe803;" d="M314-110l0 463 128 0 17 160-145 0 1 80c0 41 4 64 63 64l80 0 0 159-128 0c-153 0-207-77-207-207l0-96-96 0 0-160 96 0 0-463 191 0z" horiz-adv-x="500" />

<glyph glyph-name="flickr" unicode="&#xe804;" d="M2074 324c0-243-201-440-449-440-248 0-448 197-448 440 0 243 200 440 448 440 248 0 449-197 449-440m-1139 0c0-243-201-440-449-440-248 0-448 197-448 440 0 243 200 440 448 440 248 0 449-197 449-440" horiz-adv-x="2100" />

<glyph glyph-name="instagram" unicode="&#xe805;" d="M495 833c-130 0-146-1-197-3-51-2-86-10-116-22-31-12-58-29-85-55-26-27-43-53-55-85-12-30-20-65-22-116-2-51-3-67-3-197 0-130 1-146 3-197 2-51 10-86 22-116 12-31 29-58 55-85 27-26 54-43 85-55 30-12 65-20 116-22 51-2 67-3 197-3 130 0 146 1 197 3 51 2 86 10 116 22 32 12 58 29 85 55 26 27 43 54 55 85 12 30 20 65 22 116 2 51 3 67 3 197 0 130-1 146-3 197-2 51-10 86-22 116-12 32-29 58-55 85-27 26-53 43-85 55-30 12-65 20-116 22-51 2-67 3-197 3l0 0z m-43-86c13 0 27 0 43 0 128 0 143-1 193-3 47-2 72-10 89-16 22-9 38-19 55-36 17-17 27-33 36-55 6-17 14-42 16-89 2-50 3-65 3-193 0-127-1-143-3-193-2-47-10-72-16-89-9-22-19-38-36-55-17-16-33-27-55-35-17-7-42-15-89-17-50-2-65-3-193-3-128 0-143 1-193 3-47 2-72 10-89 17-22 8-38 19-55 35-16 17-27 33-36 55-6 17-14 42-16 89-2 50-3 66-3 193 0 128 1 143 3 193 2 47 10 72 16 89 9 22 20 38 36 55 17 17 33 27 55 36 17 6 42 14 89 16 44 2 61 3 150 3l0 0z m298-80c-31 0-57-25-57-57 0-32 26-57 57-57 32 0 58 25 58 57 0 32-26 58-58 58l0-1z m-255-67c-135 0-245-109-245-245 0-136 110-245 245-245 136 0 246 109 246 245 0 136-110 245-246 245l0 0z m0-86c88 0 159-71 159-159 0-88-71-159-159-159-88 0-159 71-159 159 0 88 71 159 159 159l0 0z" horiz-adv-x="1000" />

<glyph glyph-name="linkedin" unicode="&#xe806;" d="M263 517l0-644-214 0 0 644 214 0z m14 199c0-62-46-111-121-111l-1 0c-72 0-119 49-119 111 0 63 48 112 121 112 74 0 119-49 120-112z m759-474l0-369-214 0 0 345c0 86-31 145-109 145-59 0-94-40-110-78-5-14-7-33-7-52l0-360-214 0c0 0 3 584 0 644l214 0 0-91c29 44 80 106 193 106 141 0 247-92 247-290z" horiz-adv-x="1056" />

<glyph glyph-name="youtube" unicode="&#xe807;" d="M1344 632c0 0 13-108 13-215l0-101c0-107-13-214-13-214 0 0-13-92-52-132-50-53-106-53-131-56-183-13-457-14-457-14 0 0-340 3-445 13-29 6-94 4-144 57-39 40-52 132-52 132 0 0-13 107-13 214l0 101c0 107 13 215 13 215 0 0 13 91 52 131 50 53 106 53 131 56 183 14 457 14 457 14l1 0c0 0 274 0 457-14 25-3 81-3 131-56 39-40 52-131 52-131z m-775-437l353 185-353 187 0-372z" horiz-adv-x="1357" />

<glyph glyph-name="twitter" unicode="&#xe808;" d="M593 569l2-39-39 4c-145 19-271 81-378 186l-53 52-13-38c-29-86-10-176 49-237 32-34 25-39-30-19-19 7-36 11-37 9-6-6 13-78 28-107 21-40 63-80 109-103l39-18-46-1c-45 0-46-1-41-18 15-52 78-107 148-131l49-17-43-26c-63-37-138-57-212-59-36-1-65-4-65-6 0-9 96-53 153-71 169-52 370-30 521 59 107 64 214 189 264 311 27 65 54 184 54 241 0 37 2 41 47 86 26 25 51 53 55 61 8 16 8 16-33 2-67-24-77-21-44 15 25 26 54 72 54 86 0 2-11-2-25-9-14-8-46-20-70-27l-43-14-39 27c-21 14-51 30-67 35-41 11-103 10-139-3-99-36-162-129-155-231z" horiz-adv-x="1200" />

<glyph glyph-name="right" unicode="&#xe809;" d="M682 325l-274-274c-7-8-20-8-27 0-8 8-8 20 0 28l259 259-259 260c-8 8-8 20 0 28 4 3 9 5 14 5 5 0 10-2 13-5l274-274c7-7 7-20 0-27z" horiz-adv-x="1000" />

<glyph glyph-name="left" unicode="&#xe80a;" d="M318 325l274-274c7-8 20-8 27 0 8 8 8 20 0 28l-259 259 259 260c8 8 8 20 0 28-3 3-8 5-13 5-5 0-10-2-14-5l-274-274c-7-7-7-20 0-27z" horiz-adv-x="1000" />

<glyph glyph-name="avion" unicode="&#xe80b;" d="M2101 341a93 93 0 0 0-28 66 136 136 0 0 1-135 136h-1202a21 21 0 0 1 0-41h1202a93 93 0 0 0 39-9l58-26h-117a78 78 0 0 1 0-157h139a21 21 0 0 1 5 1l59 14a95 95 0 0 0-20 16z m-182 11a37 37 0 0 0 0 73h112l1-14c0-1 0-2 0-4a135 135 0 0 1 5-38l5-17z m249-39a94 94 0 0 0-39 8l-55-36a174 174 0 0 1-80-146v-132h-419v73h75a78 78 0 0 1 0 157h-575a78 78 0 0 1 0-157h110l-14-22a134 134 0 0 1-17-41l-3-11h-709a94 94 0 0 0-38 9l-59 27h213a21 21 0 0 1 20 20v230a21 21 0 0 1-20 21h-269a134 134 0 0 1-48-9l-15-6-18 88h100a78 78 0 0 1 0 157h-132l-30 150h264l91-180a21 21 0 0 1 18-12h77a21 21 0 0 1 0 42h-64l-148 296a21 21 0 0 1-18 11h-268a21 21 0 0 1-21-25l57-282h-56a78 78 0 0 1 0-156h87l20-97-166-15a21 21 0 0 1-19-21v-76a21 21 0 0 1 12-19l370-180a134 134 0 0 1 60-14h709l3-11a135 135 0 0 1 132-104h268a21 21 0 0 1 21 21v94h593a174 174 0 0 1 0 348z m-2006-87a135 135 0 0 1-9-48 140 140 0 0 1 2-18l3-26-116 57v44l128 12z m301 46h74v-189h-74z m-340 536h230l37-73h-252z m-45-380a37 37 0 0 0 0 74h230a37 37 0 0 0 0-74z m117-251a94 94 0 0 0 94 95h133v-189h-133a94 94 0 0 0-94 95z m1223-285h-132a94 94 0 0 0 0 188h132z m115 0h-73v188h73z m-458 230a37 37 0 0 0 0 73h575a37 37 0 1 0 0-73z m1093-115h-133v132a133 133 0 1 0 133-132z" horiz-adv-x="2342" />

<glyph glyph-name="bus" unicode="&#xe80c;" d="M403 130a98 98 0 1 1 98-99 98 98 0 0 1-98 99z m0-167a68 68 0 1 0 68 68 68 68 0 0 0-68-68z m15 82v-27a15 15 0 0 0-30 0v27a15 15 0 0 0 30 0z m872 85a98 98 0 1 1 98-99 98 98 0 0 1-98 99z m0-167a68 68 0 1 0 68 68 68 68 0 0 0-68-68z m15 82v-27a15 15 0 0 0-30 0v27a15 15 0 0 0 30 0z m373 57h-41v262a12 12 0 0 1 0 2l0 0a12 12 0 0 1 0 2l0 0 0 1-111 387a15 15 0 0 1-15 11h-321l-24 73a15 15 0 0 1-15 10h-803a15 15 0 0 1-15-15v-68h-87a15 15 0 0 1 0-30h1254l15-53h-447a15 15 0 0 1-15-15v-250a15 15 0 0 1 15-15h275l164-54a15 15 0 0 1 4-1h96v-81h-96a15 15 0 0 1-14-20l28-83a15 15 0 0 1 14-10h68v-53h-40a15 15 0 0 1-15-15v-96h-85l2 12a181 181 0 1 1-361 28 185 185 0 0 1 3-28l2-12h-113v678a15 15 0 0 1-15 15h-277a15 15 0 0 1-15-15v-678h-113l2 12a181 181 0 1 1-358 0l2-12h-196v81h96a15 15 0 0 1 15 15v111a15 15 0 0 1-15 15h-96v483a40 40 0 0 0 41 41h74a15 15 0 0 1 0 30h-74a70 70 0 0 1-27-5 71 71 0 0 1-23-16 70 70 0 0 1-21-50v-720a15 15 0 0 1 15-15h221l3-6a181 181 0 0 1 328 0l3 6h553l2-6a181 181 0 0 1 329 0l3 6h221a15 15 0 0 1 15 15v111a15 15 0 0 1-15 15z m-1315 665v53h777l18-53z m967-333h-247v220h247z m184-55l-154 51v224h164l78-275z m-1484-196h81v-81h-81z m373-303a151 151 0 1 0 151 151 151 151 0 0 0-151-151z m567 111h-247v413h247z m0 443h-247v220h247z m320-554a151 151 0 1 0 151 151 151 151 0 0 0-151-151z m260 305l-18 53h75v-53z m113-194h-81v81h81z m-1038 693h-277a15 15 0 0 1-15-15v-250a15 15 0 0 1 15-15h277a15 15 0 0 1 15 15v250a15 15 0 0 1-15 15z m-15-250h-247v220h247z m-345 250h-139a15 15 0 0 1-15-15v-250a15 15 0 0 1 15-15h139a15 15 0 0 1 15 15v250a15 15 0 0 1-15 15z m-16-250h-108v220h108z m1167-125a15 15 0 0 0-15-16h-56a15 15 0 0 0 0 31h56a15 15 0 0 0 15-15z" horiz-adv-x="1693" />

<glyph glyph-name="coche" unicode="&#xe80d;" d="M468 175a114 114 0 1 1 114-114 114 114 0 0 1-114 114z m0-194a79 79 0 1 0 79 80 79 79 0 0 0-79-80z m17 96v-33a18 18 0 0 0-34 0v33a18 18 0 0 0 34 0z m1012 98a114 114 0 1 1 114-114 114 114 0 0 1-114 114z m0-194a79 79 0 1 0 79 80 79 79 0 0 0-79-80z m18 96v-33a18 18 0 1 0-35 0v33a18 18 0 0 0 35 0z m433 65h-47v157a146 146 0 0 1-130 145h-1l-325 51-123 269a146 146 0 0 1-133 86h-408a18 18 0 1 1 0-35h408a112 112 0 0 0 88-43l15-18h-84a18 18 0 0 1-16-25l105-257a17 17 0 0 1 16-11h118l334-52 1 0a111 111 0 0 0 86-56l9-18h-106a18 18 0 0 1-18-17v-96a18 18 0 0 1 18-18h111v-62h-175l-3 7a210 210 0 0 1-382 0l-3-7h-101l0 338a8 8 0 0 1 0 1v0c0 1 0 2 0 2l0 1a15 15 0 0 1-1 1l0 1-106 257a17 17 0 0 1-16 11h-368a18 18 0 0 1-15-9l-147-258c0 0 0-1-1-2l0 0a10 10 0 0 1 0-2l0 0c0-1 0-1-1-2l0 0a14 14 0 0 1 0-2v-112a17 17 0 0 1 12-16 305 305 0 0 0 197-193l6-16h-100l-3 7a210 210 0 0 1-382 0l-3-7h-239v46h111a18 18 0 0 1 18 17v97a18 18 0 0 1-18 17h-114l6 16a47 47 0 0 0 44 30h257a18 18 0 0 1 0 35h-66l35 61h109a18 18 0 0 1 16 9l147 257a18 18 0 0 1-16 27h-92l15 18a112 112 0 0 0 88 43h89a18 18 0 1 1 0 35h-89a146 146 0 0 1-127-74l-215-376h-151a82 82 0 0 1-82-82v-322a18 18 0 0 1 18-17h256l3-7a210 210 0 0 1 382 0l3 7h641l3-7a210 210 0 0 1 382 0l3 7h257a18 18 0 0 1 17 17v129a18 18 0 0 1-17 17z m-623 354l-91 223h71l101-223z m-1290-212h94v-61h-94z m420 435h79l-127-223h-79z m-195-692l2-13h-227v93h227l-2-13a209 209 0 0 1 0-67z m208-142a176 176 0 1 0 176 176 176 176 0 0 0-176-176z m254 834h345l92-223h-565z m50-705h-98l2 13a209 209 0 0 1 0 67l-2 13h95l1-10a312 312 0 0 0 2-37z m395 0h-360v47c0 10-1 22-2 34l-1 12h363z m0 128h-370l-2 9a339 339 0 0 1-206 226l-7 3v81h585z m122-115l3-13h-90v93h90l-3-13a209 209 0 0 1 0-67z m208-142a176 176 0 1 0 176 176 176 176 0 0 0-176-176z m275 354v61h94v-61z m158-225h-227l2 13a212 212 0 0 1 0 67l-2 13h227z m-1059 304a18 18 0 0 0-17-18h-64a18 18 0 0 0 0 35h64a18 18 0 0 0 17-17z" horiz-adv-x="1965" />

<glyph glyph-name="tren" unicode="&#xe80e;" d="M1348 584h-333a18 18 0 0 1 0-36h15v-181a18 18 0 0 1 18-18h266a18 18 0 0 1 18 18v181h16a18 18 0 0 1 0 36z m-52-199h-230v163h230z m-380 199h-333a18 18 0 0 1 0-36h15v-181a18 18 0 0 1 18-18h266a18 18 0 0 1 18 18v181h16a18 18 0 0 1 0 36z m-52-199h-230v163h230z m-381 199h-332a18 18 0 1 1 0-36h15v-181a18 18 0 0 1 18-18h266a18 18 0 0 1 18 18v181h15a18 18 0 0 1 0 36z m-51-199h-230v163h230z m1580-499h-221l14 19a134 134 0 0 1 25 67l1 11h13a186 186 0 0 1 166 101l1 2 1 2a18 18 0 0 1 6 12v2l0 2a187 187 0 0 1-44 200l-390 390a186 186 0 0 1-134 56h-483v82a18 18 0 0 1-18 18h-532a18 18 0 0 1-18-18v-82h-86a18 18 0 0 1 0-36h1137a150 150 0 0 0 108-45l51-52h-62a85 85 0 0 1-48-154l1-1 138-121a6 6 0 0 1 1-1 116 116 0 0 1 71-25h201l37-37c2-2 4-4 6-6l19-20h-1937v424a38 38 0 0 0 38 38h119a18 18 0 0 1 0 36h-119a74 74 0 0 1-74-74v-619a74 74 0 0 1 58-72l8-2 1-9a134 134 0 0 1 25-69l14-19h-88a18 18 0 0 1 0-36h1994a18 18 0 0 1 0 36z m-1081 864h-496v64h496z m779-399a81 81 0 0 0-49 17l0 0-138 122a19 19 0 0 1-2 2 48 48 0 0 0 26 89h98l230-230z m-1674-135h1951l3-9a153 153 0 0 0 4-37 150 150 0 0 0-6-43l-2-8h-1950z m38-197a38 38 0 0 0-38 38v26h1934l-21-21a150 150 0 0 0-105-43z m127-133h0a98 98 0 0 0-97 83l-2 14h198l-2-14a98 98 0 0 0-97-83z m198 0h-104l14 19a134 134 0 0 1 26 67l1 11h63z m133 0h-97v97h97z m36 0v97h63l1-11a134 134 0 0 1 25-67l14-19z m198 0h0a98 98 0 0 0-97 83l-2 14h198l-2-14a98 98 0 0 0-97-83z m94 0l14 19a134 134 0 0 1 26 67l1 11h96l1-11a134 134 0 0 1 25-67l14-19z m272 0h0a98 98 0 0 0-97 83l-3 14h199l-2-14a98 98 0 0 0-97-83z m198 0h-104l14 19a134 134 0 0 1 25 67l1 11h64z m132 0h-96v97h96z m37 0v97h63l1-11a134 134 0 0 1 25-67l14-19z m198 0h0a98 98 0 0 0-97 83l-3 14h199l-2-14a98 98 0 0 0-97-83z" horiz-adv-x="2030" />

<glyph glyph-name="metro" unicode="&#xe80f;" d="M1244 67l0 0 0 1 0 0 0 1a4 4 0 0 1-1 1l0 0c0 0 0 1 0 1l0 0 0 0h0l-39 79v310h28a12 12 0 0 1 0 24h-29v29a53 53 0 0 1-53 53h-69v69a12 12 0 0 1-12 12h-122a12 12 0 0 1-12-12v-69h-240v65l39 58a12 12 0 0 1-2 15l-65 65 2 4a53 53 0 0 1 2 44l-3 9h198a12 12 0 0 1 0 24h-488a12 12 0 0 1 0-24h198l-3-9a53 53 0 0 1 2-44l2-4-65-65a12 12 0 0 1-2-15l39-58v-65h-93a12 12 0 0 1 0-25h694a28 28 0 0 0 29-28v-29h-1114v29a28 28 0 0 0 29 28h288a12 12 0 0 1 0 25h-73v69a12 12 0 0 1-12 12h-122a12 12 0 0 1-12-12v-69h-69a53 53 0 0 1-53-53v-29h-29a12 12 0 0 1 0-24h29v-310l-40-79 0 0a6 6 0 0 1 0-1l0 0c0-1 0-1-1-1s0 0 0-1l0 0a5 5 0 0 1 0-1l0 0c0-1 0-1 0-1v-62a12 12 0 0 1 12-12h29v-89a12 12 0 0 1 24 0v28h69a12 12 0 0 1 13 12v49h123l37-55a12 12 0 0 1 10-6h49l0-5a83 83 0 0 1 166 0l1 5h36v-28a12 12 0 0 1 12-12h82a12 12 0 0 1 12 12v28h36l1-5a83 83 0 0 1 166 0l0 5h49a12 12 0 0 1 10 6l37 55h123v-49a12 12 0 0 1 13-12h69v-28a12 12 0 0 1 24 0v89h29a12 12 0 0 1 12 13v60a3 3 0 0 0 0 1c0 0 0 0 0 1z m-622 759a28 28 0 1 0-28-29 28 28 0 0 0 28 29z m49-261h-98v57h98z m-103 82l-32 47 58 58 4-2a53 53 0 0 1 48 0l4 2 58-58-32-47z m489-82h-98v57h98z m-870 57h98v-56h-98z m-122-243h57v-139h-57z m-4-244h33a12 12 0 0 1 0 24h-29v57h69a12 12 0 0 1 13 12v163a12 12 0 0 1-13 12h-69v57h1114v-57h-69a12 12 0 0 1-13-12v-163a12 12 0 0 1 13-12h69v-57h-29a12 12 0 0 1 0-24h33l29-57h-151v313a12 12 0 0 1-12 12h-163a12 12 0 0 1-12-12v-313h-504v313a12 12 0 0 1-12 12h-163a12 12 0 0 1-12-12v-313h-151z m1118 244v-139h-57v138z m-281-139v138h139v-138z m138-24v-138h-138v138z m-829 24v138h139v-138z m139-24v-138h-139v138z m-224-260h-57v36h57z m385-32a59 59 0 0 0-116 0l-1 7h118z m62 32h-245l-25 36h270z m81-41h-56v77h56z m203 9a59 59 0 0 0-116 0l-1 7h118z m67 32h-245v36h270z m259 0h-57v36h57z m40 61h-1194v36h1194z m-638 386h-162a12 12 0 0 1-12-12v-163a12 12 0 0 1 12-12h162a12 12 0 0 1 13 12v163a12 12 0 0 1-13 12z m-12-163h-138v138h138z m256 163h-162a12 12 0 0 1-13-12v-163a12 12 0 0 1 13-12h162a12 12 0 0 1 12 12v163a12 12 0 0 1-12 12z m-12-163h-138v138h138z" horiz-adv-x="1244" />

<glyph glyph-name="mail" unicode="&#xe810;" d="M904 642l-766 0c-30 0-55-26-55-57l0-512c0-31 25-56 55-56l766 0c30 0 54 25 54 56l0 512c0 31-24 57-54 57z m0-57l0-33c-1 0-2 0-2-1l-381-272-381 272c-1 1-1 1-2 1l0 33z m-766-512l0 411 367-263c5-4 10-5 16-5 5 0 11 1 15 5l368 263 0-411z m0 0" horiz-adv-x="1000" />

<glyph glyph-name="phone" unicode="&#xe811;" d="M289 725c-16 0-30-5-43-15l-1-1-1-1-90-93 1-1c-27-24-37-63-25-97 0 0 0-1 0-1 25-70 87-205 209-327 122-122 259-182 327-209l1 0c34-11 72-4 99 20l91 91c24 24 24 65 0 89l-117 117-1 2c-24 24-66 24-90 0l-57-58c-43 21-83 49-118 81-47 46-71 97-80 118l57 57c25 24 25 65-1 88l1 1-2 3-115 119-1 1-2 1c-12 9-27 15-42 15z m0-58c2 0 4-1 6-2l115-118 3-3c0 0 1-3-2-6l-72-72-14-13 7-18c0 0 33-89 102-155l7-5c67-61 145-95 145-95l18-8 86 86c5 5 4 5 9 0l118-118c5-5 5-4 0-8l-88-89c-14-11-28-14-45-8-65 26-192 82-305 195-113 114-173 243-195 306-4 12-1 29 9 38l2 2 87 89c2 1 4 2 7 2z m0 0" horiz-adv-x="1000" />

<glyph glyph-name="user-8" unicode="&#xe812;" d="M417 767c-130 0-234-104-234-234 0-77 38-150 103-193-119-51-203-170-203-307l67 0c0 147 120 267 267 267 130 0 233 103 233 233 0 130-103 234-233 234z m0-67c93 0 166-73 166-167 0-93-73-166-166-166-94 0-167 73-167 166 0 94 73 167 167 167z m166-400c-36 0-66-30-66-67l0-146 200-200c13-14 30-20 46-20 17 0 34 6 47 20l120 120c13 13 20 30 20 46 0 17-7 34-20 47l-200 200z m0-67l120 0 180-180-120-120-180 180z m67-33c-18 0-33-15-33-33 0-19 15-34 33-34 19 0 33 15 33 34 0 18-14 33-33 33z m0 0" horiz-adv-x="1000" />

<glyph glyph-name="pinterest" unicode="&#xe813;" d="M449 850c-279 0-427-176-427-367 0-89 50-200 131-235 12-5 19-3 22 8 2 9 13 50 18 69 1 6 1 12-4 17-27 31-49 86-49 139 0 133 108 263 292 263 159 0 270-102 270-247 0-164-88-277-203-277-63 0-111 49-96 109 19 72 54 150 54 202 0 47-27 85-82 85-64 0-117-63-117-147 0-54 20-90 20-90 0 0-64-254-76-301-20-81 3-211 5-222 1-6 8-8 12-3 6 8 83 116 105 195 8 28 40 144 40 144 22-38 83-69 148-69 195 0 336 168 336 377-1 200-175 350-399 350z" horiz-adv-x="870" />

<glyph glyph-name="profesionales" unicode="&#xe814;" d="M455 338c-186-2-278-85-317-169-38-83-27-165-27-165a28 28 0 0 1 32-24 28 28 0 0 1 24 32c0 0-8 67 22 134 31 66 97 134 267 136 59 0 105-8 142-23a28 28 0 0 1 36 16 28 28 0 0 1-16 37c-44 17-98 27-163 26z m-9 434c-97 0-177-80-177-177 0-97 80-176 177-176 97 0 176 79 176 176 0 97-79 177-176 177z m0-57c67 0 120-53 120-120 0-67-53-120-120-120-67 0-120 53-120 120 0 67 53 120 120 120z m413-606a23 23 0 0 1-24-24v-119h-294v117a23 23 0 0 1-23 24 23 23 0 0 1-24-24v-129c0-20 18-35 36-35h316c19 0 36 15 36 35v131a23 23 0 0 1-23 24z m-215 224c-30 0-49-26-49-54v-53a23 23 0 0 1 23-23 23 23 0 0 1 24 23v53c0 6 3 7 2 7h89c-2 0 2-1 2-7v-53a23 23 0 0 1 23-23 23 23 0 0 1 24 23v53c0 28-20 54-49 54z m-131-90c-5 0-17 2-28-11l0 0c-8-9-8-18-8-21-1-30-2-60-1-89 0-7 0-18 7-30 10-18 26-23 37-26 34-11 69-16 102-19a23 23 0 0 1 25 22 23 23 0 0 1-22 25c-31 3-62 7-91 16-8 3-11 6-10 5 0-1-1 2-1 8-1 24 0 49 1 73 109 0 219 0 329 0 1-25 1-50 1-75-34-13-70-23-105-27a23 23 0 0 1-21-26 23 23 0 0 1 26-21c41 5 82 17 119 31l0 0c4 2 13 5 21 15 7 11 7 21 7 25 0 31 0 61-2 91 0 4 0 13-8 23-11 12-24 11-29 11-116 0-233 0-349 0z m135-120a21 21 0 0 1-21-21v-63a21 21 0 0 1 21-21h80a21 21 0 0 1 21 21v63a21 21 0 0 1-21 21z m21-42h38v-21h-38z" horiz-adv-x="1000" />

<glyph glyph-name="publico" unicode="&#xe815;" d="M494 312c-122-1-185-57-211-114-26-56-18-110-18-110a26 26 0 0 1 29-23 26 26 0 0 1 22 29c0 0-5 42 14 83 19 40 57 82 165 83 106 1 145-42 165-87 19-44 15-91 15-91a26 26 0 0 1 23-28 26 26 0 0 1 29 23c0 0 6 58-20 117-26 59-91 119-213 118z m1 277c-68 0-123-56-123-124 0-68 55-123 123-123 68 0 124 55 124 123 0 68-56 124-124 124z m0-52c40 0 72-32 72-72 0-39-32-71-72-71-40 0-71 32-71 71 0 40 31 72 71 72z m294-167c-103-1-158-50-179-98-22-49-16-96-16-96a26 26 0 0 1 30-23 26 26 0 0 1 22 30c0 0-4 34 11 67 15 33 45 67 132 68 87 1 117-34 132-71 16-36 13-75 13-75a26 26 0 0 1 23-28 26 26 0 0 1 29 23c0 0 5 50-17 101-22 51-78 103-180 102z m-2 227c-59 0-108-49-108-108 0-59 49-108 108-108 60 0 108 49 108 108 0 59-48 108-108 108z m0-52c32 0 56-25 56-56 0-31-24-56-56-56-31 0-56 25-56 56 0 31 25 56 56 56z m-573-175c-104 1-160-51-182-102-22-51-16-101-16-101a26 26 0 0 1 29-23 26 26 0 0 1 23 28c0 0-4 39 12 75 16 37 46 72 133 71 88-1 118-35 133-68 15-33 11-67 11-67a26 26 0 0 1 22-30 26 26 0 0 1 29 23c0 0 7 47-15 96-22 48-77 97-179 98z m-41 218c-57 0-104-47-104-104 0-57 47-105 104-105 57 0 104 48 104 105 0 57-47 104-104 104z m0-52c29 0 51-23 51-52 0-29-22-52-51-52-29 0-52 23-52 52 0 29 23 52 52 52z" horiz-adv-x="1000" />

<glyph glyph-name="arrow" unicode="&#xe816;" d="M500 517c12 0 23-6 30-15l164-201c13-17 11-41-6-55-17-14-41-11-55 6l-133 164-133-164c-14-17-38-20-55-6-17 14-19 38-6 55l164 201c7 9 18 15 30 15z" horiz-adv-x="1000" />

<glyph glyph-name="arrow-2" unicode="&#xe817;" d="M540 687a46 46 0 0 1-32-15 46 46 0 0 1 4-64l294-258-294-257a46 46 0 0 1-4-65 46 46 0 0 1 64-4l333 292a46 46 0 0 1 0 68l-333 292a46 46 0 0 1-32 11z m-394-291c-25 0-46-21-46-46 0-25 21-45 46-45z m729 0h-729v-91h729z" horiz-adv-x="1000" />

<glyph glyph-name="internet-2" unicode="&#xe818;" d="M474 779c-212 0-385-173-385-385 0-212 173-385 385-385 66 0 127 16 181 45a21 21 0 1 1-20 38 342 342 0 0 0-58-25c16 18 30 40 42 65 14 28 26 60 35 96l78-293a21 21 0 0 1 39-5l39 66 72-82a21 21 0 0 1 30-1l62 58a21 21 0 0 1 2 29l-71 82 65 29a21 21 0 0 1 2 38l-148 84a383 383 0 0 1 35 161c0 212-172 385-385 385z m-21-53v-173h-116c8 31 18 60 30 84 25 50 55 80 86 89z m43 0c30-9 61-39 85-89 12-24 23-53 31-84h-116v173z m-124-6c-16-18-30-39-43-64-15-30-27-65-36-103h-77a21 21 0 1 1 0-43h69a707 707 0 0 1-10-116c0-41 3-80 9-116h-132a343 343 0 0 0-20 116c0 154 101 283 240 326z m204 0a342 342 0 0 0 202-167h-123c-9 38-21 73-36 103-12 25-27 46-43 64z m-248-210h125v-232h-125a669 669 0 0 0-10 116c0 41 3 80 10 116z m168 0h125c6-36 10-75 10-116a669 669 0 0 0-10-116h-125v232z m168 0h133a342 342 0 0 0-10-256l-117 67a739 739 0 0 1 4 73c0 41-4 79-10 116z m25-249l225-129-53-23a21 21 0 0 1-7-34l76-87-31-29-77 88a21 21 0 0 1-34-4l-28-47-71 265z m-518-26h122c9-38 21-73 36-103 13-25 27-47 43-65a343 343 0 0 0-201 168z m166 0h116v-174c-31 10-61 40-86 90-12 24-22 53-30 84z m159 0h116c-8-31-19-60-31-84-24-50-55-80-85-90v174z" horiz-adv-x="1000" />

<glyph glyph-name="fair" unicode="&#xe819;" d="M500 767c-4 0-9-1-13-3l-375-167c-11-5-18-16-18-28v-542c0-17 14-31 31-31 17 0 31 14 31 31v521l344 153 344-153v-521c0-17 14-31 31-31 17 0 31 14 31 31v542c0 12-7 23-18 28l-375 167c-4 2-9 3-13 3z m-83-292c-20 0-38-8-52-21-14-14-21-33-21-52v-94h-52c-18 0-32-14-32-31v-250c0-17 14-31 32-31h250 166c18 0 32 14 32 31v333c0 18-14 32-32 32h-135v10c0 19-8 38-21 52-14 13-33 21-52 21z m0-62h83c3 0 6-2 7-3 2-2 3-5 3-8v-42-52h-104v94c0 3 1 6 3 8 2 1 5 3 8 3z m156-84h104v-271h-104v219z m-250-83h52 135v-188h-187z" horiz-adv-x="1000" />

<glyph glyph-name="graphics-book" unicode="&#xe81a;" d="M458 756c-52 0-96-35-110-83h-56c-31 0-60-12-81-34-22-21-34-50-34-81v-500c0-30 12-59 34-81 21-21 50-33 81-33h416c31 0 60 12 81 33 22 22 34 51 34 81v500c0 31-12 60-34 81-21 22-50 34-81 34h-56c-14 48-58 83-110 83z m0-62h84c28 0 52-24 52-52 0-29-24-52-52-52h-84c-28 0-52 23-52 52 0 28 24 52 52 52z m-166-84h56c14-48 58-83 110-83h84c52 0 96 35 110 83h56c14 0 27-5 37-15 10-10 15-23 15-37v-500c0-13-5-27-15-36-10-10-23-16-37-16h-416c-14 0-27 6-37 16-10 9-15 23-15 36v500c0 14 5 27 15 37 10 10 23 15 37 15z m83-229c-17 0-31-14-31-31v-208c0-18 14-32 31-32 17 0 31 14 31 32v208c0 17-14 31-31 31z m250-83c-17 0-31-14-31-31v-125c0-18 14-32 31-32 17 0 31 14 31 32v125c0 17-14 31-31 31z m-125-83c-17 0-31-14-31-32v-41c0-18 14-32 31-32 17 0 31 14 31 32v41c0 18-14 32-31 32z" horiz-adv-x="1000" />

<glyph glyph-name="shop" unicode="&#xe81b;" d="M165 38a23 23 0 0 0 23 23h625a23 23 0 0 0 0-46h-625a23 23 0 0 0-23 23z m72 635a23 23 0 0 0 20 13h486a23 23 0 0 0 21-13l69-139a23 23 0 0 0 2-10v-35a127 127 0 0 0-231-73 127 127 0 0 0-208 0 127 127 0 0 0-231 73v35c0 3 0 7 2 10l70 139z m182-184a81 81 0 0 1 162 0v12h-162v-12z m-46 12h-163v-12a81 81 0 1 1 163 0v12z m-148 46h550l-46 93h-458l-46-93z m565-46h-163v-12a81 81 0 0 1 163 0v12z m-533-88a23 23 0 0 0 23-23v-352a23 23 0 1 0-46 0v352a23 23 0 0 0 23 23z m486 0a23 23 0 0 0 23-23v-352a23 23 0 1 0-46 0v352a23 23 0 0 0 23 23z m-278-190a47 47 0 0 1-46-47v-138a23 23 0 0 0-46 0v138a92 92 0 0 0 92 93h70a92 92 0 0 0 92-93v-138a23 23 0 0 0-46 0v138a47 47 0 0 1-46 47h-70z" horiz-adv-x="1000" />

<glyph glyph-name="ticket" unicode="&#xe81c;" d="M208 673c-63 0-114-51-114-115v-125c0-17 14-31 31-31 69 0 69-104 0-104-17 0-31-14-31-31v-125c0-64 51-115 114-115h417 167c63 0 114 51 114 115v125c0 17-14 31-31 31-69 0-69 104 0 104 17 0 31 14 31 31v125c0 64-51 115-114 115z m0-63h386v-52c0-41 62-41 62 0v52h136c28 0 52-23 52-52v-98c-111-31-111-189 0-220v-98c0-29-24-52-52-52h-136v52c0 41-62 41-62 0v-52h-386c-28 0-52 23-52 52v98c111 31 111 189 0 220v98c0 14 6 27 16 37 9 10 23 15 36 15z m417-187c-16 0-31-10-31-31v-84c0-41 62-41 62 0v84c0 21-15 31-31 31z" horiz-adv-x="1000" />

<glyph glyph-name="artsys" unicode="&#xe81d;" d="M100 750v-800h803v800h-803z m744-744h-122v157h-56v-157h-510v685h688v-685z m-510 382h113l31-85h60l-116 306h-63l-115-306h59l31 85z m54 165l40-103h-75l35 103z" horiz-adv-x="1000" />

<glyph glyph-name="download-2" unicode="&#xe81e;" d="M479 290l177 200 63-56-240-269-239 269 62 56 177-200z m42 435v-497h-83v497h83z m-438-488h84v-188h625v188h83v-271h-792v271z" horiz-adv-x="1000" />

<glyph glyph-name="academy" unicode="&#xe81f;" d="M512 671a31 31 0 0 1-24 0l-416-167a31 31 0 0 1 0-58l147-59v-204c0-51 40-91 90-116 53-26 121-40 191-40 70 0 139 14 191 40 51 25 90 65 90 116v204l104 42v-204a31 31 0 0 1 63 0v250a31 31 0 0 1-20 29l-416 167z m227-233a33 33 0 0 1-1-1l-238-95-238 95a31 31 0 0 1-1 1l-93 37 332 133 333-133-94-37z m-458-76l207-83a31 31 0 0 1 24 0l207 83v-179c0-15-13-39-56-60-42-21-100-33-163-33s-121 12-163 33c-43 21-56 45-56 60v179z" horiz-adv-x="1000" />

<glyph glyph-name="artists" unicode="&#xe820;" d="M500 754c108 0 208-37 288-108 75-67 120-163 125-254 0-54-25-104-67-142-42-37-96-58-154-58h-104a123 123 0 0 0-12-3c-8-2-16-4-22-10-12-8-16-16-21-29 0-12 0-21 5-33 4-13 12-21 20-25l5-4c12-13 20-30 25-46 4-17 4-34-5-50-4-17-16-30-33-38-12-8-25-12-42-12h-8c-54 0-104 8-154 29-50 21-96 50-133 87-38 38-67 84-88 134-21 50-29 100-29 154 0 54 8 104 29 154 21 50 50 96 88 133 37 38 83 67 133 92 50 21 100 29 154 29z m188-504c41 0 83 17 112 42 29 25 46 62 50 96 0 79-37 154-100 212-67 58-154 92-246 92-46 0-91-9-133-25-42-17-79-42-113-75-33-34-58-71-75-113-16-41-25-87-29-137 0-46 9-92 25-134 17-41 42-79 75-112 34-33 71-58 113-75 41-17 87-25 133-25h4c4 0 9 0 13 4 4 4 8 8 8 13v12s0 4-4 8c-21 13-38 34-46 55-8 25-12 50-4 75 8 25 21 45 42 62 20 17 45 25 70 25h105z m-325 158a50 50 0 1 0-100 0 50 50 0 0 0 100 0z m137 75a50 50 0 1 1 0 100 50 50 0 0 1 0-100z m238-75a50 50 0 1 0-100 0 50 50 0 0 0 100 0z" horiz-adv-x="1000" />

<glyph glyph-name="building-business" unicode="&#xe821;" d="M543 756c-5 0-10-1-15-3l-334-167c-10-5-17-16-17-28v-552h-52c-42 0-42-62 0-62h750c42 0 42 62 0 62h-52v386c0 10-5 20-14 26l-236 157v150c0 11-6 21-15 27-4 3-10 4-15 4z m-33-82v-115-553h-270v533z m-135-168c-17 0-31-14-31-31v0c0-42 62-42 62 0v0c0 17-14 31-31 31z m198-6l187-125v-369h-187z m-198-119c-16 0-31-10-31-31v0c0-42 62-42 62 0v0c0 21-15 31-31 31z m0-125c-17 0-31-14-31-31v0c0-42 62-42 62 0v0c0 17-14 31-31 31z m0-125c-16 0-31-10-31-31v0c0-42 62-42 62 0v0c0 21-15 31-31 31z" horiz-adv-x="1000" />

<glyph glyph-name="calendar-8" unicode="&#xe822;" d="M323 767c-16 0-31-11-31-32v-52h-84c-46 0-83-37-83-83v-562c0-47 37-84 83-84h605c46 0 83 37 83 84v562c0 46-37 83-83 83h-84v52c0 42-62 42-62 0v-52h-313v52c0 21-15 32-31 32z m-115-146h84v-52c0-42 62-42 62 0v52h313v-52c0-42 62-42 62 0v52h84c11 0 20-9 20-21v-167h-645v167c0 12 9 21 20 21z m-20-250h645v-333c0-12-9-21-20-21h-605c-11 0-20 9-20 21z" horiz-adv-x="1000" />

<glyph glyph-name="calendar-9" unicode="&#xe823;" d="M333 756c-15 0-31-10-31-31v-52h-52c-63 0-115-51-115-115v-500c0-63 52-114 115-114h500c63 0 115 51 115 114v500c0 64-52 115-115 115h-52v52c0 17-14 31-31 31-18 0-32-14-32-31v-52h-270v52c0 21-16 31-32 31z m-83-146h52v-52c0-41 63-41 63 0v52h270v-52c0-41 63-41 63 0v52h52c29 0 52-23 52-52v-135h-604v135c0 29 23 52 52 52z m-52-250h604v-302c0-28-23-52-52-52h-500c-29 0-52 24-52 52z m135-104c-17 0-31-14-31-31v-83c0-18 14-32 31-32h84c17 0 31 14 31 32v83c0 17-14 31-31 31z" horiz-adv-x="1000" />

<glyph glyph-name="exhibitors" unicode="&#xe824;" d="M208 610c-28 0-52-23-52-52v-416c0-29 24-52 52-52h584c28 0 52 23 52 52v416c0 29-24 52-52 52h-584z m-114-52a115 115 0 0 0 114 115h584a115 115 0 0 0 114-115v-416a115 115 0 0 0-114-115h-584a115 115 0 0 0-114 115v416z m267-73a43 43 0 1 1 0-85 43 43 0 0 1 0 85z m-105-42a105 105 0 1 0 211 0 105 105 0 0 0-211 0z m38-192c8 8 19 12 30 12h74a43 43 0 0 0 43-43v-37a31 31 0 1 1 63 0v37a105 105 0 0 1-106 106h-74a105 105 0 0 1-105-106v-37a31 31 0 1 1 62 0v37c0 12 5 23 13 31z m258 182a31 31 0 0 0 31 32h167a31 31 0 0 0 0-63h-167a31 31 0 0 0-31 31z m31-135a31 31 0 0 1 0-63h167a31 31 0 0 1 0 63h-167z" horiz-adv-x="1000" />

<glyph glyph-name="marketing" unicode="&#xe825;" d="M725 486c29-25 42-58 42-96 0-33-13-71-42-92-17-20-37-33-62-37v-67c0-12 0-25-9-33-4-8-12-17-25-21-8-4-16-4-25-4h-8c-13 0-25 4-33 12l-150 125h-25v-158c0-17-9-33-21-46-13-12-29-21-46-21h-33c-17 0-34 9-46 21-13 13-21 29-21 46v158h-71c-17 0-33 9-46 21-12 13-21 29-21 46v150c0 17 5 33 17 46 13 12 29 21 46 21h271l141 104c13 12 25 21 38 21 11 3 19 1 29-3 1 0 3-1 4-1l25-25c9-17 9-34 9-38v-92c20-8 45-20 62-37z m-583 4v-154h179v158h-175l-4-4z m146-379l37 4v158h-42v-158l5-4z m154 212l158-129v417l4 4c-2-2-4-3-6-4-2-1-4-2-6-4l-150-113c-2 0-4-1-6-1a27 27 0 0 0-11-3h-37v-158h33c8 0 17-4 21-9z m221 5c8 0 16 8 20 12 17 13 21 38 21 54s-8 38-21 50c-4 2-7 4-10 6-3 3-6 5-10 7v-129z m83-46c12 12 33 12 46 0l66-71c13-13 13-34 0-46-4-4-12-8-20-8s-17 4-21 8l-71 71c-13 12-13 33 0 46z m25 221c8 0 17 4 21 8l71 67c12 12 12 33 0 45-13 13-34 13-46 0l-71-66c-13-13-13-34 0-46 8-4 17-8 25-8z m54-71h100c17 0 33-13 33-34s-16-33-33-33h-100c-21 0-33 13-33 33s16 34 33 34z" horiz-adv-x="1000" />

<glyph glyph-name="sectors" unicode="&#xe826;" d="M490 691l-332-153a1 1 0 0 1 0-1l0 0c0 0 0 0 0 0a1 1 0 0 1 0-1l332-151a39 39 0 0 1 30 0l332 152a1 1 0 0 1 0 1l0 0 0 1 0 0-332 152a39 39 0 0 1-30 0z m-25 57a101 101 0 0 0 80 0l0 0 334-152a64 64 0 0 0 36-58 63 63 0 0 0-36-57l-334-153 0-1a101 101 0 0 0-80 0l-1 0-333 153a64 64 0 0 0-36 57 63 63 0 0 0 36 57l333 154 1 0z m448-405a31 31 0 0 0-15-42l-357-162 0 0a90 90 0 0 0-74 0l0 0-355 162a31 31 0 0 0 26 57l355-162h0a28 28 0 0 1 22 0h0l357 162a31 31 0 0 0 41-15z m-15-229a31 31 0 0 1-26 57l-357-162a28 28 0 0 0-22 0h0l-355 162a31 31 0 1 1-26-57l355-162 0 0a90 90 0 0 1 74 0l0 0 357 162z" horiz-adv-x="1000" />

<glyph glyph-name="speakers" unicode="&#xe827;" d="M508 610a91 91 0 1 1 0-181 91 91 0 0 1 0 181z m-153-90a154 154 0 1 0 307 0 154 154 0 0 0-307 0z m340-168a31 31 0 0 0 40 19c37-12 67-38 89-73 21-35 32-78 32-121v-54h19a31 31 0 1 0 0-63h-750a31 31 0 0 0 0 63h19v54c0 43 11 85 33 121 21 35 52 61 88 73a31 31 0 0 0 20-59c-20-7-40-22-55-47-15-24-24-55-24-88v-54h88v30a154 154 0 0 0 153 153h122a153 153 0 0 0 154-153v-30h71v54c0 33-9 64-24 88-15 25-34 40-55 47a31 31 0 0 0-20 40z m-35-229v30a91 91 0 0 1-91 91h-122a91 91 0 0 1-91-91v-30h304z" horiz-adv-x="1000" />

<glyph glyph-name="sponsors" unicode="&#xe828;" d="M958 495c0 72-32 145-82 195-55 45-119 72-193 77-68 0-133-18-188-64-55 41-119 64-183 59-73 0-137-31-188-81-55-46-82-114-82-186 0-72 27-140 78-195-5-13-5-27 0-41 4-18 13-31 27-45 18-18 37-27 60-27 0-23 9-45 27-59 19-18 37-27 60-27 0-23 9-45 27-59 19-13 37-23 64-27 0-23 14-41 28-55 18-18 41-27 64-27s46 9 64 27l55 55 14 14c28-5 60 4 78 27 18 13 27 36 27 59 23 0 42 9 60 27 18 13 28 36 28 59 22 0 45 9 64 27 13 13 23 31 27 50 5 13 0 31-4 45 45 45 68 109 68 172z m-348-109c-9-13-14-31 0-45l124-118c4-4 9-13 9-18 0-4-5-13-9-18-5-9-14-14-19-14-9 0-13 0-18 5l-14 9-119 113c-4 9-9 9-18 9s-18-4-23-9a34 34 0 0 1-9-22c0-9 4-19 9-23l119-113 9-9c5-5 5-9 5-14 0-9-5-14-9-23-5-4-14-9-19-9-4 18-13 37-27 55-18 13-37 27-60 27 0 23-9 45-27 59-19 13-37 22-60 27 0 23-9 45-27 59-19 13-37 22-60 27 0 23-9 45-27 59-37 32-97 36-133 0l-51-45c-32 40-50 90-50 140 0 54 23 109 59 145 42 36 92 59 147 63 51 0 96-13 138-40l-97-96c-18-13-32-40-32-63 0-27 9-50 28-68 36-32 96-32 133 0l105 104 234-231c4-4 9-13 9-18 0-9-5-13-9-18-14-14-32-14-46 0-5 0-5 5-9 5l-119 113c-9 4-28 4-37-5z m-60-339l-45-46c-14-13-32-13-46 0a34 34 0 0 0-9 23c0 9 4 14 9 23l55 54a35 35 0 0 0 23 9c9 0 18-5 23-9 4-5 9-14 9-23 0-9-5-13-9-22l-10-9z m-362 253l55 55c14 13 32 13 46 0 5-5 9-14 9-19 0-4-4-13-9-22l-55-55c-14-13-32-13-46 0-4 5-9 14-9 19 5 9 5 18 9 22z m92-86l55 55c14 13 32 13 46 0 4-5 9-14 9-19 0-9-5-13-9-22l-55-55c-14-13-32-13-46 0-5 9-9 14-9 23 0 9 4 14 9 18z m87-122c-4 4-9 13-9 18 0 9 5 14 9 23l55 54a35 35 0 0 0 23 9c9 0 18-4 23-9 5-5 9-14 9-18 0-5-4-14-9-23l-55-54c-14-14-32-14-46 0z m486 276l-238 236-5 4-5 5h-22l-10-5-4-4-129-123c-13-13-32-13-45 0-5 5-10 14-10 19 0 9 5 13 10 22l123 118a220 220 0 0 0 156 63c60 0 115-22 156-59 37-36 60-86 64-140 0-50-14-95-41-136z" horiz-adv-x="1000" />

<glyph glyph-name="internet" unicode="&#xe829;" d="M484 756c-4 1-9 0-13-1-211-14-377-190-377-405 0-215 166-391 377-405 4-1 9-2 13-1 11 0 21 0 32 0 4-1 9 0 13 1 211 14 377 190 377 405 0 215-166 391-377 405-4 1-9 2-13 1-11 0-21 0-32 0z m13-62c2 0 4 0 6 0 35-59 60-122 76-188h-158c16 66 41 129 76 188z m-76-9c-29-57-50-117-64-179h-163c46 90 129 155 227 179z m159 0c98-24 180-89 226-179h-163c-13 62-35 122-63 179z m-411-241h177c-3-31-5-62-5-94 0-31 2-63 5-94h-177c-8 30-13 62-13 94 0 32 5 63 13 94z m241 0h181c8-62 8-126 0-188h-181c-9 62-9 126 0 188z m244 0h177c8-30 13-61 13-94 0-32-5-63-13-94h-177c8 63 8 126 0 188z m-460-250h163c14-62 35-122 63-178-98 23-180 88-226 178z m227 0h158c-16-66-41-129-76-188-2 0-4 0-6 0-35 59-60 122-76 188z m222 0h163c-46-90-128-155-226-178 28 56 50 116 63 178z" horiz-adv-x="1000" />

<glyph glyph-name="arrow-3" unicode="&#xe82a;" d="M673 563a25 25 0 0 1-17-8 25 25 0 0 1 0-35l160-160-160-160a25 25 0 0 1 0-35 25 25 0 0 1 36 0l177 177a25 25 0 0 1 0 36l-177 177a25 25 0 0 1-19 8z m-548-176a25 25 0 0 1-25-25 25 25 0 0 1 25-25h695a25 25 0 0 1 25 25 25 25 0 0 1-25 25z" horiz-adv-x="1000" />

<glyph glyph-name="video-play" unicode="&#xe82b;" d="M429 457v-214l160 105z" horiz-adv-x="1000" />

<glyph glyph-name="ring-more" unicode="&#xe82c;" d="M500 788c-241 0-437-197-437-438 0-241 196-438 437-438 241 0 438 197 438 438 0 241-197 438-438 438z m0-32c225 0 406-181 406-406 0-225-181-406-406-406-225 0-406 181-406 406 0 225 181 406 406 406z m-172-390v-32h344v32z m156 156v-344h32v344z" horiz-adv-x="1000" />

<glyph glyph-name="ring-less" unicode="&#xe82d;" d="M500 788c-241 0-437-197-437-438 0-241 196-438 437-438 241 0 438 197 438 438 0 241-197 438-438 438z m0-32c225 0 406-181 406-406 0-225-181-406-406-406-225 0-406 181-406 406 0 225 181 406 406 406z m-172-390v-32h344v32z" horiz-adv-x="1000" />

<glyph glyph-name="ring-arrow-right" unicode="&#xe82e;" d="M500 788c-241 0-437-197-437-438 0-241 196-438 437-438 241 0 438 197 438 438 0 241-197 438-438 438z m0-32c225 0 406-181 406-406 0-225-181-406-406-406-225 0-406 181-406 406 0 225 181 406 406 406z m86-297a16 16 0 0 1-10-4 16 16 0 0 1 0-22l78-78-78-78a16 16 0 0 1 0-22 16 16 0 0 1 22 0l89 89a16 16 0 0 1 0 22l-89 89a16 16 0 0 1-12 4z m-273-88a16 16 0 0 1-16-15 16 16 0 0 1 16-16h347a16 16 0 0 1 16 16 16 16 0 0 1-16 15z" horiz-adv-x="1000" />

<glyph glyph-name="ring-arrow-left" unicode="&#xe82f;" d="M500 788c-241 0-437-197-437-438 0-241 196-438 437-438 241 0 438 197 438 438 0 241-197 438-438 438z m0-32c225 0 406-181 406-406 0-225-181-406-406-406-225 0-406 181-406 406 0 225 181 406 406 406z m-99-295a16 16 0 0 1-11-4l-88-89a16 16 0 0 1 0-22l88-89a16 16 0 0 1 22 0 16 16 0 0 1 0 22l-77 78 77 78a16 16 0 0 1 0 22 16 16 0 0 1-11 4z m-85-90a16 16 0 0 1-15-15 16 16 0 0 1 15-16h360a16 16 0 0 1 15 16 16 16 0 0 1-15 15z" horiz-adv-x="1000" />

<glyph glyph-name="download-3" unicode="&#xe830;" d="M390 293c-4 0-8-1-11-4-6-7-6-16 0-23l111-111c6-6 16-6 22 0l111 111c7 7 7 16 0 23-6 6-16 6-22 0l-100-100-100 100c-3 3-7 4-11 4z m112 343c-8 0-15-7-15-15v-435c0-9 7-16 15-16 9 0 16 7 16 16v435c0 8-7 15-16 15z m-314-604v-31h593v31z m15 188c-8 0-15-7-15-16v-203h31v203c0 9-7 16-16 16z m594 0c-9 0-16-7-16-16v-203h32v203c0 9-7 16-16 16z" horiz-adv-x="1000" />

<glyph glyph-name="pause-2" unicode="&#xe831;" d="M55 794v-889h333v889z m556 0v-889h333v889z" horiz-adv-x="1000" />

<glyph glyph-name="share-1" unicode="&#xe832;" d="M751 756c-79 0-157-56-157-156 0-13 1-27 5-39l-225-116c-91 119-280 54-280-95 0-149 189-214 280-95l225-116c-48-183 209-276 291-107 83 168-149 313-264 163l-225 116c7 26 7 52 0 78l225 116c108-140 329-22 272 145-25 73-86 107-147 106z m-1-62c73 0 118-80 80-143-38-62-130-59-163 6-1 2-2 3-3 5-27 62 18 132 86 132z m-493-250c30-2 59-18 76-51 1-2 2-3 3-5 11-24 11-52 0-76-1-2-2-3-3-5-45-87-177-55-177 43 0 61 52 97 101 94z m485-249c63 3 128-62 92-136-52-108-221-36-170 79 1 2 2 3 3 5 18 35 46 51 75 52z" horiz-adv-x="1000" />

<glyph glyph-name="location" unicode="&#xe833;" d="M500 548c-78 0-156-52-156-156 0-209 312-209 312 0 0 104-78 156-156 156z m0-63c125 0 125-187 0-187-125 0-125 187 0 187z m0 271c-325 0-487-392-258-622l177-177c45-45 117-45 162 0l177 177c230 230 67 622-258 622z m0-62c269 0 404-326 214-516l-177-177c-20-20-53-20-74 0l-177 177c-190 190-55 516 214 516z" horiz-adv-x="1000" />

<glyph glyph-name="fashion" unicode="&#xe834;" d="M189 725c-13 0-25-4-35-13-11-8-22-20-32-30-28-28-49-64-66-100-12-25-17-54-13-82 4-29 12-58 25-83 26-46 38-96 38-149v-207c3-24 25-44 51-44h55c11 0 23 4 31 11 14 12 20 26 20 43v206c1-2 3-2 1-2 30-25 58-52 84-81 21-23 42-47 59-74 7-13 15-26 22-38 12-17 27-32 45-44 24-14 51-21 78-21h106c51 0 102 0 158 1 19 2 39 4 57 9 21 5 40 13 57 27 21 18 30 40 28 67-1 19-9 37-18 54-18 33-42 60-72 83-34 29-75 48-119 56-21 4-40 0-53-16-8-6-14-14-20-21-9-10-16-20-26-29-3-1-5-3-8-1-7 3-15 5-21 8-24 12-45 27-64 46-6 4-11 10-15 16-9 11-15 21-23 33-40 58-79 115-120 172-34 49-72 95-115 136-20 19-39 36-60 53-10 9-22 14-35 14z m-4-64c9-7 16-13 24-20 54-47 99-100 139-157 42-62 86-123 128-184 7-12 15-22 24-32 28-30 62-54 100-71 12-6 25-10 38-12 18-3 34 5 47 15 15 11 27 24 38 38 3 4 7 9 10 13 2 3 3 3 6 3 28-6 54-17 77-34 25-17 46-39 61-65 5-10 9-20 12-30 3-11 0-20-10-27-9-6-20-10-32-11-18-2-34-5-52-6-45-3-90-3-135-3h-103c-32 0-54 12-71 34l-13 22c-18 33-42 63-68 91-34 38-71 73-109 106-11 10-23 17-35 26-7 4-16 5-25 4-12-1-20-9-26-19-6-10-7-21-9-32 0-15-1-30-1-46v-186h-36v194c0 61-15 121-45 175-9 17-13 35-16 54-2 13-3 26 1 39 3 9 7 19 12 28 12 23 24 44 41 64 9 9 17 19 26 28 0 0 0 1 2 1z" horiz-adv-x="1000" />

<glyph glyph-name="video" unicode="&#xe835;" d="M250 715c-63 0-115-52-115-115v-500c0-63 52-115 115-115h500c63 0 115 52 115 115v500c0 63-52 115-115 115z m0-63h500c29 0 52-23 52-52v-500c0-29-23-52-52-52h-500c-29 0-52 23-52 52v500c0 29 23 52 52 52z m209-187c-17 0-32-13-32-32v-166c0-25 27-40 48-27l135 83c20 13 20 41 0 54l-135 83c-5 3-11 5-16 5z m31-88l44-27-44-27z" horiz-adv-x="1000" />

<glyph glyph-name="tiktok" unicode="&#xe836;" d="M823 628c-7 3-13 7-19 11-18 12-35 26-50 41-36 42-50 85-55 115h0c-4 25-2 41-2 41h-167v-647c0-8 0-17-1-26 0-1 0-2 0-3 0 0 0-1 0-1 0 0 0 0 0 0-3-48-30-90-71-113-21-12-45-18-69-18-78 0-141 63-141 142s63 142 141 142c14 0 29-3 43-7l0 170c-86 11-172-14-239-70-28-25-53-55-71-88-7-12-34-61-37-141-2-45 11-91 18-110v-1c4-11 20-50 45-83 21-26 45-49 72-68v0l1 0c80-55 170-52 170-52 16 1 68 0 127 28 65 31 103 78 103 78 23 27 42 59 55 93 16 40 21 87 21 106v343c2-1 29-19 29-19s39-25 99-41c44-12 103-14 103-14v166c-21-2-62 4-105 26z" horiz-adv-x="1014" />

<glyph glyph-name="close-2" unicode="&#xe837;" d="M285 647c-7-1-14-5-19-10-13-13-14-33-3-44l221-221-232-231-3-4c-8-12-5-29 6-40 13-13 32-14 44-3l231 232 222-223 4-3c12-7 29-5 40 6 13 13 14 33 3 44l-222 222 211 212 3 4c8 11 6 28-6 39-13 13-32 14-43 3l-212-211-221 220-4 4c-5 3-13 5-20 4z" horiz-adv-x="1042" />

<glyph glyph-name="check-2" unicode="&#xe838;" d="M1288 827c31-31 33-85 4-119l-711-831c-15-18-37-27-59-27-22 0-43 11-57 29l-383 475c-29 35-25 88 7 119 33 31 82 27 110-8l326-404 652 762c30 34 79 36 111 4z m0 0c31-31 33-85 4-119l-711-831c-15-18-37-27-59-27-22 0-43 11-57 29l-383 475c-29 35-25 88 7 119 33 31 82 27 110-8l326-404 652 762c30 34 79 36 111 4z" horiz-adv-x="1375" />

<glyph glyph-name="brawl-stars" unicode="&#xe839;" d="M500 725c-4 0-9-2-12-5l-117-122-161-36-76 36c-3 2-5 2-8 2-6 0-11-3-14-9 0 0-18-35-18-93 0-29 9-52 20-70-5 1-10 0-14-3-4-3-6-8-6-12v-16c0-18-2-59 10-99 12-41 41-83 99-96 1 0 1 0 1 0 0 0 0 0 0 0l29-7-8-28c-2-4-1-8 1-12 2-4 6-7 10-8l148-34 104-102c4-3 8-5 12-5 4 0 9 2 12 5l104 102 148 34c4 1 8 4 10 8 2 4 3 8 2 12l-9 28 29 7c59 13 88 55 100 96 12 40 10 81 10 99v16c0 4-2 9-6 12-4 3-9 4-14 3 11 18 20 41 20 70 0 58-18 93-18 93-3 6-8 9-14 9-3 0-5 0-8-2l-76-36-161 36-117 122c-3 3-7 5-12 5z m0-39l109-112c2-3 5-4 8-5l155-35-46-148c-1-3-1-6 0-9l46-148-155-35c-3-1-6-3-8-5l-109-113-109 113c-2 2-5 4-8 5l-155 35 46 148c1 3 1 6 0 9l-46 148 155 35c3 1 6 2 8 5l109 112z m0-117c-107 0-195-84-195-188v0c0 0 0 0 0-1 1-103 88-186 195-186 101 0 184 74 194 169 1 6 1 12 1 18 0 104-87 188-195 188z m-364-6l58-29 48-153-45-144c-37 13-53 39-62 69-9 32-9 64-8 85l27-9c7-2 16 1 19 8 4 7 2 15-5 20 0 0-42 27-42 88 0 33 5 52 10 65z m728 0c5-13 10-32 10-65 0-61-42-88-42-88-7-5-9-13-5-20 3-7 12-10 19-8l28 9c0-21 1-53-9-85-9-30-25-56-62-69l-45 144 48 153 58 29z m-364-25c90 0 162-70 162-157 0-18-3-35-9-52-9-22-28-41-62-57-6-2-9-7-10-13l0-2c0 0 0 0 0-1 0-9-7-15-16-15h-130c-9 0-16 6-16 15l0 1c0 7-3 13-9 15-37 17-55 37-64 61-5 15-8 31-8 48v0 0c0 87 72 157 162 157z m-49-78c-6 0-12-4-15-10-2-6-1-13 4-17l16-16c4-4 10-6 16-4 6 1 10 6 12 11 1 5-1 11-5 15l-16 16c-3 3-7 5-12 5z m97 0c-4-1-8-2-11-5l-16-16c-4-4-6-10-4-15 1-5 6-10 11-11 6-2 12 0 16 4l16 16c5 4 7 11 4 17-3 6-9 10-16 10z m-129-47c-27 0-49-21-49-47 0-26 22-47 49-47 27 0 49 21 49 47 0 26-22 47-49 47z m162 0c-27 0-48-21-48-47 0-26 21-47 48-47 27 0 49 21 49 47 0 26-22 47-49 47z m-81-63l-32-47h65l-33 47z" horiz-adv-x="1000" />

<glyph glyph-name="clash-royale" unicode="&#xe83a;" d="M500-88l-375 221v542h240l139 113 140-113h231v-542l-375-221z m-300 265l300-173 300 173v424h-185l-111 90-110-90h-194v-424z m462 246l-63 21-31 83-67 6-67-6-31-83-63-21-20 71 4-134c0 0 16 31 177 31 161 0 177-31 177-31l4 134-20-71z m-157-49h-8c-147-2-169-36-169-36 0 0-11-135 19-135 0 0-7 1-7 11 0 9 32 28 161 28 129 0 161-19 161-28 0-10-7-11-7-11 30 0 19 135 19 135 0 0-22 34-169 36z m-4-114l-47 46 47 45 47-45-47-46z" horiz-adv-x="1000" />

<glyph glyph-name="fortnite" unicode="&#xe83b;" d="M707 739l-17-83h171l-28-167 27-391-304 21v-120l-250-50v145l-167-50 28 417-28 195h167v83h401z m-68-56h-278v-666l139 27v250h111v139h-111v111h111l28 139z" horiz-adv-x="1000" />

<glyph glyph-name="legends-of-runeterra" unicode="&#xe83c;" d="M500 694c-98 0-176-20-230-40-27-10-48-20-62-28-7-4-13-7-16-9-3-1-4-2-5-3 0-1-1-1-1-1h0l-14-8 29-238 12-6c17-8 38-19 38-50 0-16-7-29-14-37-3-4-7-8-9-10-1-1-2-2-3-2l0-1-14-9 29-164 260-82 260 82 29 164-14 9 0 1c-1 0-2 1-3 2-3 2-6 6-9 10-7 9-13 21-13 37 0 31 20 42 37 50l12 6 29 238-13 8 0 0c-1 0-1 1-2 1-1 1-2 2-4 3-4 2-9 5-16 9-15 8-36 18-63 28-54 20-132 40-230 40z m-1-49c91 0 164-18 213-37 24-8 43-18 56-25 2-1 4-2 6-3l-23-181c-21-12-52-37-52-88 0-30 12-53 24-67 4-5 7-9 11-13l-19-104-215-69-217 68-18 105c3 3 7 7 11 12 11 15 24 38 24 68 0 51-32 76-53 88l-22 181c2 1 4 2 5 3 13 7 32 17 57 25 49 19 122 37 212 37z m-114-73l23-43v-346l-19-31h103l-21 31v103l38 31c16-43 48-129 48-133 0-5-4-18-15-33h105c-5 4-16 14-20 24-6 11-48 127-69 184 13 14 40 54 48 90 17 66-3 123-75 123z m86-47h11c16 0 33 0 45-8 15-10 23-35 18-62-10-49-46-78-68-96-2-1-3-3-6-4z" horiz-adv-x="1000" />

<glyph glyph-name="lol" unicode="&#xe83d;" d="M198 497c-27-49-42-105-42-165 0-60 15-116 42-164v329z m302 181c-28 0-55-4-81-10v-54c26 7 53 11 81 11 161 0 291-131 291-292 0-73-26-139-70-190l-8-30-19-66c91 62 150 167 150 285 0 191-154 346-344 346z m-35-484h193 4c33 36 53 86 53 140 0 112-86 204-191 204-21 0-40-4-59-10v-334z m-77 531h-196l37-77v-596l-37-77h450l41 146h-295v604z" horiz-adv-x="1000" />

<glyph glyph-name="valorant" unicode="&#xe83e;" d="M870 631c-1 0-3 0-4-1l-334-367c-1-1-1-3 0-4 1-2 2-3 4-3h241c7 0 13 3 17 7l76 84c3 3 5 7 5 12v268c0 2-2 4-5 4z m-741 0c-2 0-4-2-4-4v-281c0-5 2-9 4-13l227-288c4-5 9-7 15-7h218c4 0 6 4 4 7l-460 585c-1 1-2 1-4 1v0z" horiz-adv-x="1000" />

<glyph glyph-name="discord" unicode="&#xe83f;" d="M745 694h-490c-37 0-67-31-67-70v-458c0-38 30-69 67-69h423l-17 62 42-40 39-38 71-64v607c0 39-31 70-68 70z m-152-442c0 0-12 14-22 27 43 13 60 40 60 40-14-9-27-15-38-20-16-7-32-11-47-14-32-6-61-5-85 0-19 4-35 9-48 15-8 3-16 7-24 11-1 1-2 1-3 2-1 0-1 1-2 1-5 3-9 6-9 6 0 0 16-27 58-40-10-13-22-28-22-28-73 2-100 51-100 51 0 109 47 197 47 197 47 37 92 36 92 36l3-4c-59-18-86-44-86-44 0 0 7 4 19 9 35 16 63 21 75 22 2 0 3 0 5 0 20 3 43 4 66 1 32-4 65-13 99-32 0 0-26 25-82 43l5 5c0 0 45 1 92-36 0 0 47-88 47-197 0 0-28-49-100-51z m-152 158c-19 0-34-17-34-38 0-20 15-37 34-37 18 0 33 17 33 37 1 21-15 38-33 38z m119 0c-18 0-33-17-33-38 0-20 15-37 33-37 19 0 34 17 34 37 0 21-15 38-34 38z" horiz-adv-x="1000" />

<glyph glyph-name="twitch" unicode="&#xe840;" d="M230 663l-42-113v-460h152v-83h86l81 83h123l167 171v402h-567z m506-379l-95-99h-153l-81-84v84h-128v415h457v-316z m-91 207v-172h-61v172h61z m-153 0v-172h-61v172h61z" horiz-adv-x="1000" />

<glyph glyph-name="add-1-fill" unicode="&#xe900;" d="M831 453h-228v228c0 56-47 102-103 102s-103-46-103-102v-228h-228c-56 0-102-47-102-103s46-103 102-103h228v-228c0-56 47-102 103-102s103 46 103 102v228h228c56 0 102 47 102 103s-46 103-102 103z" horiz-adv-x="1000" />

<glyph glyph-name="add-1" unicode="&#xe901;" d="M500-88c-66 0-119 53-119 119v200h-200c-65 0-118 53-118 119s53 119 118 119h200v200c0 66 53 119 119 119s119-53 119-119v-200h200c66 0 119-53 119-119s-53-119-119-119h-200v-200c0-66-53-119-119-119z m-319 518c-43 0-79-37-79-80s36-79 79-79h240v-240c0-43 36-79 79-79s80 36 80 79v240h239c43 0 79 36 79 79s-36 80-79 80h-239v239c0 43-37 79-80 79s-79-36-79-79v-239h-240z" horiz-adv-x="1000" />

<glyph glyph-name="add-2-fill" unicode="&#xe902;" d="M67 783v-866h866v866h-866z m736-462h-274v-274h-58v274h-274v58h274v274h58v-274h274v-58z" horiz-adv-x="1000" />

<glyph glyph-name="add-2" unicode="&#xe903;" d="M63 788h875v-876h-875v876z m845-846v816h-816v-816h816z m-423 102v291h-291v30h291v291h30v-291h291v-30h-291v-291h-30z" horiz-adv-x="1000" />

<glyph glyph-name="add-3-fill" unicode="&#xe904;" d="M831 775v-102h-679v-629h-85v731h764z m-645-136h747v-714h-747v714z m560-374c10 0 17 8 17 17s-7 17-17 17h-169v170c0 9-8 17-17 17s-17-8-17-17v-170h-170c-10 0-17-8-17-17s7-17 17-17h170v-170c0-9 7-17 17-17s17 8 17 17v170h169z" horiz-adv-x="1000" />

<glyph glyph-name="add-3" unicode="&#xe905;" d="M842 652h96v-732h-764v112h-111v748h779v-128z m-748-588h80v588h636v96h-716v-684z m812-112v669h-700v-669h700z m-175 350c9 0 16-7 16-16s-7-15-16-15h-159v-160c0-8-7-15-16-15s-16 7-16 15v160h-159c-9 0-16 7-16 15s7 16 16 16h159v159c0 9 7 16 16 16s16-7 16-16v-159h159z" horiz-adv-x="1000" />

<glyph glyph-name="add-fill" unicode="&#xe906;" d="M488 683c14 0 26-9 28-21l1-4 0-266 279 0c14 0 26-13 26-29 0-15-9-27-21-29l-5-1-279 0 0-291c0-14-13-25-29-25-15 0-27 9-29 21l-1 4 0 291-277 0c-14 0-26 14-26 30 0 14 9 26 21 28l5 1 277 0 0 266c0 14 13 25 30 25z m0 0" horiz-adv-x="1000" />

<glyph glyph-name="add" unicode="&#xe907;" d="M938 371h-417v417h-42v-417h-416v-42h416v-417h42v417h417z" horiz-adv-x="1000" />

<glyph glyph-name="agenda-fill" unicode="&#xe908;" d="M254 783c-22 0-43-9-58-26-15-16-23-38-21-60h0v-708c0-40 33-72 73-72h577v866h-571z m-50-794v650c12-9 27-15 43-15v-678c-24 0-43 19-43 43z m592-43h-520v678h43v-364c0-1 1-3 1-4 0 0 0 0 0-1 0-1 1-2 1-3 0 0 0-1 1-1 0-1 1-2 1-3 0 0 1 0 1 0 0-1 1-2 2-3 0 0 0 0 0 0 1-1 1-1 1-1 3-3 9-5 14-5 6 0 12 2 16 6 1 2 2 3 3 4l61 102 61-102c1-2 3-4 6-6 3-3 7-4 12-4 3 0 5 0 8 1 0 0 0 0 0 0 2 1 5 3 7 4 0 0 0 0 0 1 0 0 0 0 0 0 1 1 2 2 3 3 0 0 0 0 0 0 1 1 1 2 2 3 0 0 0 1 0 1 0 1 1 2 1 3 0 1 0 1 0 1 1 1 1 3 1 4v364h274v-678z m-265 707l29 58h-206l-29-58h-67c-28 0-51 20-54 46-1 14 3 28 13 39 10 10 23 16 37 16h542v-14h-72c-8 0-15-6-15-14s7-15 15-15h72v-14h-58c-8 0-14-7-14-15s6-14 14-14h58v-15h-265z" horiz-adv-x="1000" />

<glyph glyph-name="agenda" unicode="&#xe909;" d="M252 788c-22 0-44-10-59-27-15-17-23-39-21-61h0v-714c0-41 33-74 73-74h583v876h-576z m-51-802v656c12-9 27-15 44-15v-685c-24 0-44 20-44 44z m598-44h-525v685h44v-367c0-10 6-19 16-21 2-1 4-1 6-1 0 0 0 0 0 0 1 0 2 0 2 0 2 0 3 1 5 1 0 0 1 1 2 1 1 0 2 1 4 2 0 1 1 1 1 1 2 2 3 3 4 5l62 103 61-103c5-8 14-11 23-10 1 0 1 0 2 1 9 2 16 11 16 21v367h277v-685h0z m-304 707l0 0-2-4v0l-2-4 2-2v-353l-73 122-73-122v352l24 47h142l-18-36z m36 7l29 59h-208l-29-59h-68c-27 0-51 20-54 46-1 15 3 29 13 39 10 11 24 17 38 17h547v-14h-73c-8 0-14-7-14-15s6-14 14-14h73v-15h-58c-8 0-15-6-15-15s7-14 15-14h58v-15h-268z" horiz-adv-x="1000" />

<glyph glyph-name="alarm-1-fill" unicode="&#xe90a;" d="M136 454c6-5 6-15 0-20-26-26-40-61-40-98s14-72 40-98c6-6 6-15 0-20-3-3-6-5-10-5s-8 2-10 5c-32 31-49 73-49 118s17 87 49 118c5 6 14 6 20 0z m51-208c-4 0-8 2-11 4-48 49-48 127 0 175 6 6 15 6 21 0s6-15 0-20c-37-37-37-97 0-134 6-6 6-15 0-21-3-2-7-4-10-4z m697 208c32-31 49-73 49-118s-17-87-49-118c-2-3-6-5-10-5s-7 2-10 5c-6 5-6 14 0 20 26 26 40 61 40 98s-14 72-40 98c-6 5-6 15 0 20s15 6 20 0z m-81-29c6 6 15 6 21 0 48-48 48-126 0-175-3-2-7-4-11-4s-7 2-10 4c-5 6-5 15 0 21 37 37 37 97 0 134-5 5-5 15 0 20z m-57-97c0-89 34-168 101-235 4-4 6-9 4-15-2-5-6-9-11-9l-137-24c-26-5-49-8-71-11-26-50-75-81-129-81-54 0-104 31-129 81-22 3-46 6-72 11l-137 24c-5 1-9 4-11 9-2 6 0 11 4 15 64 64 96 143 96 235v130c1 92 65 162 128 191 15 7 30 12 46 16v10c0 40 32 72 72 72s72-32 72-72v-9c18-4 35-9 51-17 57-26 124-92 123-191v-130z m-289 347v-3c28 4 58 4 86 0v3c0 24-19 43-43 43s-43-19-43-43z m-116-231c8 0 15 6 15 14 0 53 43 87 69 99 48 22 107 22 156 0 7-3 16 0 19 7 3 8 0 16-7 20-56 25-125 25-180-1-32-14-86-57-86-125 0-8 6-14 14-14 0 0 0 0 0 0z m254-414c0 0 0 0 0 0-5-1-10-1-15-2-3 0-6 0-10-1-2 0-4 0-7 0-42-3-80-3-122 0-2 0-4 0-6 0-3 1-6 1-8 1-6 1-11 1-17 2 0 0 0 0 0 0 22-30 56-48 93-48 36 0 71 18 92 48z" horiz-adv-x="1000" />

<glyph glyph-name="alarm-1" unicode="&#xe90b;" d="M748 328c0-90 35-170 103-237 4-4 5-10 3-15-1-5-6-9-11-10l-138-24c-26-4-50-8-72-11-26-50-76-82-130-82-55 0-105 32-130 82-23 3-47 7-72 11l-139 24c-5 1-10 5-11 10s-1 11 3 15c65 64 98 144 98 237v131c1 93 65 164 129 193 15 7 31 12 46 17v9c0 40 33 73 73 73s73-33 73-73v-8c17-5 34-10 51-18 58-26 125-93 124-193v-131z m-292 350v-3c29 5 59 5 88 1v2c0 24-20 44-44 44s-44-20-44-44z m47-700c37 0 71 18 93 49-32-4-63-6-93-6-31 0-61 2-94 6 22-31 57-49 94-49z m197 93l111 19c-60 68-92 150-92 238v131c1 81-53 142-107 167-18 8-37 14-56 18 0 0 0 0-1 0-36 7-74 7-110-1 0 0 0 0-1 0-17-4-34-10-51-18-55-25-111-86-112-166v-131c0-92-29-172-87-238l112-19c28-5 53-9 78-12 0 0 0 0 0 0 10-1 21-3 31-4 0 0 0 0 1 0 9-1 18-1 26-2 2 0 4 0 6 0 8-1 15-1 23-2 1 0 3 0 5 0 18 0 36 0 54 0 1 0 3 0 4 0 8 1 16 1 24 2 1 0 3 0 5 0 9 1 18 1 27 2 0 0 0 0 0 0 11 1 21 3 32 4 0 0 0 0 0 0 24 3 50 7 78 12z m-106 515c7-4 10-12 7-20-4-7-12-10-20-7-48 23-108 23-157 0-26-12-69-46-70-100 0-8-6-14-14-14 0 0 0 0 0 0-9 0-15 6-15 15 0 68 55 111 87 126 56 26 125 26 182 0z m-461-131c5-6 5-15 0-20-27-27-41-62-41-99s14-73 41-99c5-6 5-15 0-21-3-3-7-4-11-4s-7 1-10 4c-32 32-49 75-49 120s17 87 49 119c6 6 15 6 21 0z m51-210c-4 0-8 2-11 4-48 49-48 128 0 177 6 6 15 6 21 0s6-15 0-21c-37-37-37-98 0-135 6-6 6-15 0-21-3-2-7-4-10-4z m704 210c32-32 50-74 50-119s-18-88-50-120c-3-3-6-4-10-4s-8 1-10 4c-6 6-6 15 0 21 26 26 40 61 40 99s-14 72-40 99c-6 5-6 14 0 20s14 6 20 0z m-82-29c6 6 15 6 21 0 48-49 48-128 0-177-3-2-7-4-11-4s-7 2-10 4c-6 6-6 15 0 21 37 37 37 98 0 135-6 6-6 15 0 21z" horiz-adv-x="1000" />

<glyph glyph-name="alarm-clock-1-fill" unicode="&#xe90c;" d="M741 500c-7-4-10-13-5-20 2-5 7-7 12-7 3 0 5 0 8 2l12 7c20-39 31-81 34-127h-14c-9 0-15-6-15-15s6-14 15-14h14c-3-46-14-89-34-127l-12 7c-7 4-16 2-20-5s-2-16 5-20l12-7c-24-37-55-69-93-93l-7 12c-4 7-13 10-20 6-7-4-9-13-5-20l7-12c-38-20-81-32-126-34v14c0 8-7 14-15 14s-15-6-15-14v-14c-45 2-88 14-126 34l7 12c4 7 1 16-6 20-7 4-16 1-20-6l-7-12c-37 24-68 56-92 93l12 7c7 4 9 13 5 20-4 7-13 9-20 5l-12-7c-20 38-32 81-34 127h14c8 0 15 6 15 14s-7 15-15 15h-14c2 46 14 88 34 127l12-7c2-2 5-2 7-2 6 0 10 2 13 7 4 7 2 16-5 20l-12 7c24 37 55 69 92 93l7-12c3-5 8-8 13-8 2 0 5 1 7 2 7 4 10 13 6 20l-7 12 15 6c25 11 51 18 78 23l33 5v-14c0-8 7-14 15-14s15 6 15 14v14c45-2 88-14 126-34l-7-12c-4-7-2-16 5-20 3-1 5-2 8-2 5 0 10 3 12 7l7 13c38-24 69-56 93-93l-12-7z m-86-174c9 0 15 6 15 14s-6 15-15 15h-104c-6 21-22 37-42 42v149c0 8-7 15-15 15s-15-7-15-15v-149c-25-6-44-29-44-57 0-32 26-58 59-58 27 0 50 18 57 44h104z m-161-15c-16 0-30 13-30 29s14 30 30 30c16 0 29-13 29-30s-13-29-29-29z m310 329l-25-25c69-71 111-168 111-275 0-145-78-272-195-341l44-45c6-6 6-15 0-21-3-3-6-4-10-4s-8 1-11 4l-50 51c-53-26-112-40-174-40s-122 14-174 40l-51-51c-3-3-6-4-10-4s-8 1-11 4c-5 6-5 15 0 21l45 45c-117 69-196 196-196 341 0 107 43 204 111 275l-24 25-60-60c-3-3-7-5-11-5s-7 2-10 5c-47 46-47 122 0 168 22 23 52 35 84 35 32 0 62-12 85-35 2-2 4-6 4-10s-2-8-4-10l-67-67 24-25c71 63 163 101 265 101s194-38 264-101l25 25-67 67c-3 2-4 6-4 10s1 8 4 10c23 23 53 35 85 35s61-12 84-35c46-46 46-122 0-168-3-3-7-5-10-5s-8 2-11 5l-60 60z m-18-130c-30 51-72 93-123 122 0 1 0 1 0 1 0 0-1 0-1 0-50 29-107 45-168 45s-119-16-168-45c-1 0-1 0-1 0 0 0 0 0-1-1-50-29-93-71-122-122 0 0-1 0-1-1 0 0 0 0 0 0-29-50-45-107-45-169s16-118 45-168c0 0 0 0 0-1 0 0 1 0 1 0 30-51 72-93 122-123 1 0 1 0 1 0 0 0 1-1 1-1 50-28 107-44 168-44s118 16 168 44c0 0 0 1 1 1 0 0 0 0 0 0 51 30 93 72 123 123 0 0 0 0 0 0 1 1 1 1 1 1 28 50 45 107 45 168s-17 119-45 169c0 0 0 0-1 0s0 1 0 1z" horiz-adv-x="1000" />

<glyph glyph-name="alarm-clock-1" unicode="&#xe90d;" d="M657 355c8 0 15-6 15-15s-7-14-15-14h-106c-7-26-30-45-57-45-33 0-60 27-60 59 0 28 19 51 45 58v150c0 8 7 15 15 15s15-7 15-15v-150c20-6 37-22 42-43h106z m-163-44c16 0 29 13 29 29s-13 30-29 30c-17 0-30-13-30-30s13-29 30-29z m313 332l-25-25c69-72 112-170 112-278 0-146-79-275-197-345l45-45c5-5 5-15 0-21-3-3-7-4-11-4s-8 1-10 4l-52 52c-53-26-112-41-175-41s-123 15-176 41l-51-52c-3-3-7-4-11-4s-7 1-10 4c-6 6-6 16 0 21l45 45c-118 70-198 199-198 345 0 108 43 206 113 278l-25 25-61-61c-3-3-7-4-11-4s-7 1-10 4c-47 47-47 123 0 170 47 47 123 47 170 0 3-2 5-6 5-10s-2-8-5-11l-67-67 25-25c71 63 164 102 267 102s196-39 267-102l25 25-68 67c-3 3-4 7-4 11s1 8 4 10c47 47 124 47 171 0 47-47 47-123 0-170-3-3-7-4-11-4s-8 1-10 4l-61 61z m61 88c-32 32-82 35-117 10l126-127c26 36 22 86-9 117z m-758-117l127 127c-35 25-85 22-117-10s-35-81-10-117z m384-644c204 0 371 166 371 370s-167 371-371 371c-205 0-371-166-371-371s166-370 371-370z m295 542c0-1 0-1 0-1 0 0 0-1 0-1 29-50 46-108 46-170s-17-119-46-169c0-1 0-1 0-1 0-1 0-1-1-1-29-51-72-94-123-123 0-1 0-1-1-1 0 0 0 0-1-1-50-28-108-45-169-45s-120 17-170 45c0 1 0 1-1 1 0 0 0 0 0 1-51 29-94 72-124 123 0 0 0 0-1 1 0 0 0 0 0 1-29 50-45 108-45 169s16 120 45 170c0 0 0 1 0 1s1 0 1 1c30 51 72 93 124 123 0 0 0 1 0 1 0 0 1 0 1 0 50 29 108 45 170 45s119-16 170-45c0 0 0 0 0 0 1 0 1-1 1-1 51-30 94-72 124-123z m-127-433c37 24 69 56 93 93l-12 7c-7 4-9 13-5 21 4 7 13 9 20 5l12-7c20 38 32 82 34 128h-14c-8 0-14 6-14 14s6 15 14 15h14c-2 46-14 89-34 128l-12-7c-2-2-5-2-7-2-6 0-10 3-13 7-4 7-2 16 5 21l12 7c-24 37-56 69-93 93l-7-12c-3-5-8-8-13-8-2 0-5 1-7 2-7 4-10 14-6 21l7 12c-38 20-82 32-127 34v-14c0-8-7-15-15-15s-15 7-15 15v14c-46-2-89-14-128-34l7-12c4-7 2-17-5-21-2-1-5-2-8-2-5 0-10 3-12 8l-7 12c-38-24-70-56-94-93l12-8c7-4 10-13 6-20-3-5-8-7-13-7-3 0-5 0-8 2l-12 7c-20-39-32-82-34-128h14c8 0 15-6 15-15s-7-14-15-14h-14c2-46 14-90 34-128l13 7c7 4 16 2 20-6 4-7 1-16-6-20l-12-7c24-37 56-69 94-93l7 12c4 7 13 9 20 5 7-4 9-13 5-20l-7-12c39-20 82-32 128-34v14c0 8 7 15 15 15s15-7 15-15v-14c45 2 89 14 127 34l-7 12c-4 7-1 16 6 20 7 4 16 2 20-5l7-12z" horiz-adv-x="1000" />

<glyph glyph-name="alarm-clock-fill" unicode="&#xe90e;" d="M804 640l-25-25c69-71 111-168 111-275 0-145-78-272-195-341l44-45c6-6 6-15 0-21-3-3-6-4-10-4s-8 1-11 4l-50 51c-53-26-112-40-174-40s-122 14-174 40l-51-51c-3-3-6-4-10-4s-8 1-11 4c-5 6-5 15 0 21l45 45c-117 69-196 196-196 341 0 107 43 204 111 275l-24 25-60-60c-3-3-7-5-11-5s-7 2-10 5c-47 46-47 122 0 168 22 23 52 35 84 35 32 0 62-12 85-35 2-2 4-6 4-10s-2-8-4-10l-67-67 24-25c71 63 163 101 265 101s194-38 264-101l25 25-67 67c-3 2-4 6-4 10s1 8 4 10c23 23 53 35 85 35s61-12 84-35c46-46 46-122 0-168-3-3-7-5-10-5s-8 2-11 5l-60 60z m-619-312c8 0 15 6 15 14s-7 15-15 15h-14c-8 0-15-7-15-15s7-14 15-14h14z m101-214c6 5 6 15 0 20s-15 6-21 0l-10-10c-6-6-6-15 0-21 3-3 7-4 10-4s8 1 11 4l10 11z m0 436c6 6 6 15 0 21l-10 10c-6 6-15 6-21 0s-6-15 0-21l10-10c3-3 7-4 11-4s7 1 10 4z m193 115v-14c0-8 7-15 15-15s15 7 15 15v14c0 8-7 15-15 15s-15-7-15-15z m30-646v15c0 8-7 14-15 14s-15-6-15-14v-15c0-8 7-15 15-15s15 7 15 15z m146 307c9 0 15 6 15 14s-6 15-15 15h-104c-6 21-22 37-42 42v149c0 8-7 15-15 15s-15-7-15-15v-149c-25-6-44-29-44-57 0-32 26-58 59-58 27 0 50 18 57 44h104z m78-223c5 6 5 15 0 21l-11 10c-5 6-15 6-20 0s-6-15 0-20l10-11c3-3 7-4 10-4s8 1 11 4z m0 457c5 6 5 15 0 21s-15 6-21 0l-10-10c-6-6-6-15 0-21 2-3 6-4 10-4s7 1 10 4l11 10z m69-203c-8 0-14-7-14-15s6-14 14-14h15c8 0 15 6 15 14s-7 15-15 15h-15z m-308-46c-16 0-30 13-30 29s14 30 30 30c16 0 29-13 29-30s-13-29-29-29z" horiz-adv-x="1000" />

<glyph glyph-name="alarm-clock" unicode="&#xe90f;" d="M657 355c8 0 15-6 15-15s-7-14-15-14h-106c-7-26-30-45-57-45-33 0-60 27-60 59 0 28 19 51 45 58v150c0 8 7 15 15 15s15-7 15-15v-150c20-6 37-22 42-43h106z m-163-44c16 0 29 13 29 29s-13 30-29 30c-17 0-30-13-30-30s13-29 30-29z m313 332l-25-25c69-72 112-170 112-278 0-146-79-275-197-345l45-45c5-5 5-15 0-21-3-3-7-4-11-4s-8 1-10 4l-52 52c-53-26-112-41-175-41s-123 15-176 41l-51-52c-3-3-7-4-11-4s-7 1-10 4c-6 6-6 16 0 21l45 45c-118 70-198 199-198 345 0 108 43 206 113 278l-25 25-61-61c-3-3-7-4-11-4s-7 1-10 4c-47 47-47 123 0 170s123 47 170 0c3-2 5-6 5-10s-2-8-5-11l-67-67 25-25c71 63 164 102 267 102s196-39 267-102l25 25-68 67c-3 3-4 7-4 11s1 8 4 10c47 47 124 47 171 0s47-123 0-170c-3-3-7-4-11-4s-8 1-10 4l-61 61z m61 88c-32 32-82 35-117 10l126-127c26 36 22 86-9 117z m-758-117l127 127c-35 25-85 22-117-10s-35-81-10-117z m384-644c204 0 371 166 371 370s-167 371-371 371c-205 0-371-166-371-371s166-370 371-370z m0 669c-8 0-15 6-15 15v14c0 9 7 15 15 15s15-6 15-15v-14c0-9-7-15-15-15z m0-593c8 0 15-7 15-15v-15c0-8-7-15-15-15s-15 7-15 15v15c0 8 7 15 15 15z m311 281c-8 0-15 7-15 15s7 15 15 15h15c8 0 15-7 15-15s-7-15-15-15h-15z m-623 30c9 0 15-7 15-15s-6-15-15-15h-15c-8 0-14 7-14 15s6 15 14 15h15z m532 226c6 6 15 6 21 0s6-15 0-21l-11-10c-2-3-6-4-10-4s-8 1-10 4c-6 6-6 15 0 21l10 10z m-451-451c6 6 15 6 21 0s6-15 0-21l-10-10c-3-3-7-4-11-4s-8 1-10 4c-6 6-6 15 0 21l10 10z m461 0l11-10c6-6 6-15 0-21-3-3-7-4-11-4s-7 1-10 4l-10 10c-6 6-6 16 0 21s15 6 20 0z m-450 451l10-10c6-6 6-15 0-21-3-3-7-4-10-4s-8 1-11 4l-10 10c-6 6-6 16 0 21s15 6 21 0z" horiz-adv-x="1000" />

<glyph glyph-name="alarm-fill" unicode="&#xe910;" d="M876 70c-73 73-110 159-110 256v142c0 108-72 180-135 208-17 8-36 14-55 19v10c0 43-35 78-79 78s-78-35-78-78v-12c-17-4-34-9-50-17-69-32-139-108-140-208v-142c0-100-35-187-105-256-4-4-6-11-4-16 2-6 6-10 12-11l150-26c28-5 54-9 78-12 27-54 81-88 140-88 59 0 113 34 141 88 24 3 49 7 77 12l150 26c6 1 10 5 12 11 2 5 0 12-4 16z m-426 635c0 26 21 47 47 47s48-21 48-47v-3c-32 4-64 4-95-1v4z m-126-253c0 0 0 0 0 0-9 1-16 8-16 16 1 74 59 121 94 137 61 28 135 28 196 0 8-4 12-13 8-21-3-8-13-12-21-8-52 24-117 24-170 0-28-13-75-50-75-108 0-9-7-16-16-16z m277-451c-23-33-61-53-101-53-40 0-77 20-101 53h0c6-1 12-2 18-2 3 0 6-1 9-1 2 0 4 0 7 0 45-4 88-4 133-1 3 1 6 1 8 1 4 0 7 1 11 1 5 0 10 1 16 2 0 0 0 0 0 0z" horiz-adv-x="1000" />

<glyph glyph-name="alarm" unicode="&#xe911;" d="M880 67c4-4 6-10 4-16-2-6-7-10-13-11l-151-26c-28-5-53-9-78-12-28-55-82-90-142-90-59 0-114 35-142 90-24 3-50 7-78 12l-151 26c-6 1-11 5-13 11s0 12 4 16c71 70 107 158 107 259v143c1 101 71 178 141 210 16 8 33 14 50 18v11c0 44 35 80 79 80s80-36 80-80v-9c19-5 37-11 55-19 64-29 137-102 136-211v-143c0-98 38-185 112-259z m-430 641v-4c31 5 63 6 95 1v3c0 26-21 48-48 48s-47-22-47-48z m50-764c41 0 78 20 102 53-35-4-69-5-102-5-33 0-66 1-102 5 24-33 62-53 102-53z m215 101l122 21c-66 75-101 164-101 260v143c1 88-58 155-117 182-19 9-40 15-61 19 0 0 0 0 0 0-40 9-82 8-121-1 0 0 0 0 0 0-19-4-38-10-56-19-60-27-122-94-122-181v-143c0-100-32-187-96-260l122-21c31-5 59-9 85-13 0 0 1 0 1 0 11-1 22-2 33-3 1-1 1-1 1-1 10-1 20-1 29-2 2 0 4 0 6 0 9-1 17-1 25-2 2 0 4 0 6 0 19-1 39-1 59 0 1 0 3 0 5 0 8 1 17 1 25 2 2 0 4 0 6 0 9 1 19 1 30 3 0 0 0 0 0 0 11 1 22 2 34 3 0 0 0 0 0 0 26 4 54 8 85 13z m-116 562c8-3 12-13 8-21-3-8-13-11-21-8-53 25-119 25-172 0-28-13-75-50-76-109 0-8-7-16-16-16 0 0 0 0 0 0-9 1-16 8-16 16 1 75 60 122 95 138 61 28 137 28 198 0z" horiz-adv-x="1000" />

<glyph glyph-name="albums-fill" unicode="&#xe912;" d="M139 639h43v-578h-43v578z m679 0h43v-578h-43v578z m72-58h43v-462h-43v462z m-823 0h43v-462h-43v462z m144 116h578v-694h-578v694z m506-621v548h-434v-548h434z" horiz-adv-x="1000" />

<glyph glyph-name="albums" unicode="&#xe913;" d="M938 591v-482h-61v-61h-60v-60h-634v60h-60v61h-60v482h60v61h60v60h634v-60h60v-61h61z m-845-452h30v422h-30v-422z m60-61h30v544h-30v-544z m634-60v664h-574v-664h574z m60 60v544h-30v-544h30z m60 61v422h-30v-422h30z m-588 422c-8 0-15 7-15 15s7 15 15 15c8 0 15-6 15-15s-7-15-15-15z m-45 46c-9 0-15 6-15 15s6 15 15 15c8 0 15-7 15-15s-7-15-15-15z m90 0c-8 0-15 6-15 15s7 15 15 15c9 0 15-7 15-15s-6-15-15-15z m-90-91c-9 0-15 7-15 15s6 15 15 15c8 0 15-7 15-15s-7-15-15-15z m90 0c-8 0-15 7-15 15s7 15 15 15c9 0 15-7 15-15s-6-15-15-15z m46 45c-9 0-16 7-16 15s7 15 16 15c8 0 15-6 15-15s-7-15-15-15z m90 0c-8 0-15 7-15 15s7 15 15 15c8 0 15-6 15-15s-7-15-15-15z m-45 46c-9 0-15 6-15 15s6 15 15 15c8 0 15-7 15-15s-7-15-15-15z m90 0c-8 0-15 6-15 15s7 15 15 15c9 0 15-7 15-15s-6-15-15-15z m-90-91c-9 0-15 7-15 15s6 15 15 15c8 0 15-7 15-15s-7-15-15-15z m90 0c-8 0-15 7-15 15s7 15 15 15c9 0 15-7 15-15s-6-15-15-15z m46 45c-9 0-16 7-16 15s7 15 16 15c8 0 15-6 15-15s-7-15-15-15z m90 0c-8 0-15 7-15 15s7 15 15 15c8 0 15-6 15-15s-7-15-15-15z m-45 46c-9 0-15 6-15 15s6 15 15 15c8 0 15-7 15-15s-7-15-15-15z m90 0c-8 0-15 6-15 15s7 15 15 15c9 0 15-7 15-15s-6-15-15-15z m-90-91c-9 0-15 7-15 15s6 15 15 15c8 0 15-7 15-15s-7-15-15-15z m90 0c-8 0-15 7-15 15s7 15 15 15c9 0 15-7 15-15s-6-15-15-15z m-407-45c-8 0-15 6-15 15s7 15 15 15c8 0 15-7 15-15s-7-15-15-15z m0-91c-8 0-15 7-15 15s7 15 15 15c8 0 15-6 15-15s-7-15-15-15z m-45 45c-9 0-15 7-15 16s6 15 15 15c8 0 15-7 15-15s-7-16-15-16z m90 0c-8 0-15 7-15 16s7 15 15 15c9 0 15-7 15-15s-6-16-15-16z m-90-90c-9 0-15 7-15 15s6 15 15 15c8 0 15-7 15-15s-7-15-15-15z m90 0c-8 0-15 7-15 15s7 15 15 15c9 0 15-7 15-15s-6-15-15-15z m46 136c-9 0-16 6-16 15s7 15 16 15c8 0 15-7 15-15s-7-15-15-15z m90 0c-8 0-15 6-15 15s7 15 15 15c8 0 15-7 15-15s-7-15-15-15z m-90-91c-9 0-16 7-16 15s7 15 16 15c8 0 15-6 15-15s-7-15-15-15z m90 0c-8 0-15 7-15 15s7 15 15 15c8 0 15-6 15-15s-7-15-15-15z m-45 45c-9 0-15 7-15 16s6 15 15 15c8 0 15-7 15-15s-7-16-15-16z m90 0c-8 0-15 7-15 16s7 15 15 15c9 0 15-7 15-15s-6-16-15-16z m-90-90c-9 0-15 7-15 15s6 15 15 15c8 0 15-7 15-15s-7-15-15-15z m90 0c-8 0-15 7-15 15s7 15 15 15c9 0 15-7 15-15s-6-15-15-15z m46 136c-9 0-16 6-16 15s7 15 16 15c8 0 15-7 15-15s-7-15-15-15z m90 0c-8 0-15 6-15 15s7 15 15 15c8 0 15-7 15-15s-7-15-15-15z m-90-91c-9 0-16 7-16 15s7 15 16 15c8 0 15-6 15-15s-7-15-15-15z m90 0c-8 0-15 7-15 15s7 15 15 15c8 0 15-6 15-15s-7-15-15-15z m-45 45c-9 0-15 7-15 16s6 15 15 15c8 0 15-7 15-15s-7-16-15-16z m90 0c-8 0-15 7-15 16s7 15 15 15c9 0 15-7 15-15s-6-16-15-16z m-90-90c-9 0-15 7-15 15s6 15 15 15c8 0 15-7 15-15s-7-15-15-15z m90 0c-8 0-15 7-15 15s7 15 15 15c9 0 15-7 15-15s-6-15-15-15z m-407-45c-8 0-15 6-15 15s7 15 15 15c8 0 15-7 15-15s-7-15-15-15z m0-91c-8 0-15 7-15 15s7 15 15 15c8 0 15-6 15-15s-7-15-15-15z m-45 45c-9 0-15 7-15 16s6 15 15 15c8 0 15-7 15-15s-7-16-15-16z m90 0c-8 0-15 7-15 16s7 15 15 15c9 0 15-7 15-15s-6-16-15-16z m-90-90c-9 0-15 7-15 15s6 15 15 15c8 0 15-7 15-15s-7-15-15-15z m90 0c-8 0-15 7-15 15s7 15 15 15c9 0 15-7 15-15s-6-15-15-15z m46 136c-9 0-16 6-16 15s7 15 16 15c8 0 15-7 15-15s-7-15-15-15z m90 0c-8 0-15 6-15 15s7 15 15 15c8 0 15-7 15-15s-7-15-15-15z m-90-91c-9 0-16 7-16 15s7 15 16 15c8 0 15-6 15-15s-7-15-15-15z m90 0c-8 0-15 7-15 15s7 15 15 15c8 0 15-6 15-15s-7-15-15-15z m-45 45c-9 0-15 7-15 16s6 15 15 15c8 0 15-7 15-15s-7-16-15-16z m90 0c-8 0-15 7-15 16s7 15 15 15c9 0 15-7 15-15s-6-16-15-16z m-90-90c-9 0-15 7-15 15s6 15 15 15c8 0 15-7 15-15s-7-15-15-15z m90 0c-8 0-15 7-15 15s7 15 15 15c9 0 15-7 15-15s-6-15-15-15z m46 136c-9 0-16 6-16 15s7 15 16 15c8 0 15-7 15-15s-7-15-15-15z m90 0c-8 0-15 6-15 15s7 15 15 15c8 0 15-7 15-15s-7-15-15-15z m-90-91c-9 0-16 7-16 15s7 15 16 15c8 0 15-6 15-15s-7-15-15-15z m90 0c-8 0-15 7-15 15s7 15 15 15c8 0 15-6 15-15s-7-15-15-15z m-45 45c-9 0-15 7-15 16s6 15 15 15c8 0 15-7 15-15s-7-16-15-16z m90 0c-8 0-15 7-15 16s7 15 15 15c9 0 15-7 15-15s-6-16-15-16z m-90-90c-9 0-15 7-15 15s6 15 15 15c8 0 15-7 15-15s-7-15-15-15z m90 0c-8 0-15 7-15 15s7 15 15 15c9 0 15-7 15-15s-6-15-15-15z m-407-45c-8 0-15 6-15 15s7 15 15 15c8 0 15-7 15-15s-7-15-15-15z m-45-46c-9 0-15 7-15 15s6 16 15 16c8 0 15-7 15-16s-7-15-15-15z m90 0c-8 0-15 7-15 15s7 16 15 16c9 0 15-7 15-16s-6-15-15-15z m46 46c-9 0-16 6-16 15s7 15 16 15c8 0 15-7 15-15s-7-15-15-15z m90 0c-8 0-15 6-15 15s7 15 15 15c8 0 15-7 15-15s-7-15-15-15z m-45-46c-9 0-15 7-15 15s6 16 15 16c8 0 15-7 15-16s-7-15-15-15z m90 0c-8 0-15 7-15 15s7 16 15 16c9 0 15-7 15-16s-6-15-15-15z m46 46c-9 0-16 6-16 15s7 15 16 15c8 0 15-7 15-15s-7-15-15-15z m90 0c-8 0-15 6-15 15s7 15 15 15c8 0 15-7 15-15s-7-15-15-15z m-45-46c-9 0-15 7-15 15s6 16 15 16c8 0 15-7 15-16s-7-15-15-15z m90 0c-8 0-15 7-15 15s7 16 15 16c9 0 15-7 15-16s-6-15-15-15z" horiz-adv-x="1000" />

<glyph glyph-name="app-fill" unicode="&#xe914;" d="M411 783c28 0 51-22 51-50v-294c0-28-23-51-51-51h-293c-29 0-51 23-51 51v294c0 28 22 50 51 50h293z m163-395c-28 0-51 23-51 51v294c0 28 23 50 51 50h293c28 0 51-22 51-50v-294c0-28-23-51-51-51h-293z m-163-61c28 0 51-23 51-51v-293c0-28-23-51-51-51h-293c-29 0-51 23-51 51v293c0 28 22 51 51 51h293z m492-167c17 0 30-14 30-30s-13-31-30-31h-152v-152c0-17-14-30-30-30s-31 13-31 30v152h-152c-17 0-30 14-30 31s13 30 30 30h152v152c0 17 14 30 31 30s30-13 30-30v-152h152z" horiz-adv-x="1000" />

<glyph glyph-name="app" unicode="&#xe915;" d="M417 788c28 0 52-24 52-53v-302c0-28-24-52-52-52h-302c-29 0-52 24-52 52v302c0 29 23 53 52 53h302z m21-355v302c0 12-10 21-21 21h-302c-12 0-21-9-21-21v-302c0-11 9-20 21-20h302c11 0 21 9 21 20z m447 355c29 0 53-24 53-53v-302c0-28-24-52-53-52h-302c-28 0-52 24-52 52v302c0 29 24 53 52 53h302z m21-355v302c0 12-9 21-21 21h-302c-11 0-20-9-20-21v-302c0-11 9-20 20-20h302c12 0 21 9 21 20z m-489-114c28 0 52-24 52-52v-302c0-29-24-53-52-53h-302c-29 0-52 24-52 53v302c0 28 23 52 52 52h302z m21-354v302c0 11-10 21-21 21h-302c-12 0-21-10-21-21v-302c0-12 9-21 21-21h302c11 0 21 9 21 21z m484 166c9 0 16-7 16-15s-7-16-16-16h-172v-172c0-9-7-16-16-16s-15 7-15 16v172h-172c-9 0-16 7-16 16s7 15 16 15h172v172c0 9 7 16 15 16s16-7 16-16v-172h172z" horiz-adv-x="1000" />

<glyph glyph-name="archive-1-fill" unicode="&#xe916;" d="M849 783c23 0 41-18 41-41v-378h-780v378c0 23 18 41 41 41h698z m-219-209v22c0 8-6 14-14 14s-15-6-15-14v-22c0-12-10-22-22-22h-158c-12 0-22 10-22 22v22c0 8-7 14-15 14s-14-6-14-14v-22c0-28 23-51 51-51h158c28 0 51 23 51 51z m-520-616v378h780v-378c0-23-18-41-41-41h-698c-23 0-41 18-41 41z m260 219v-22c0-28 23-51 51-51h158c28 0 51 23 51 51v22c0 8-6 14-14 14s-15-6-15-14v-22c0-12-10-22-22-22h-158c-12 0-22 10-22 22v22c0 8-7 14-15 14s-14-6-14-14z" horiz-adv-x="1000" />

<glyph glyph-name="archive-1" unicode="&#xe917;" d="M853 788c22 0 41-19 41-42v-792c0-23-19-42-41-42h-705c-23 0-42 19-42 42v792c0 23 19 42 42 42h705z m-705-30c-7 0-13-5-13-12v-381h730v381c0 7-6 12-13 12h-704z m705-816c6 0 12 5 12 12v381h-730v-381c0-7 6-12 13-12h705z m-433 583c-28 0-51 23-51 51v22c0 8 6 15 14 15s15-7 15-15v-22c0-12 10-22 22-22h160c12 0 22 10 22 22v22c0 8 7 15 15 15s14-7 14-15v-22c0-28-23-51-51-51h-160z m197-335c8 0 14-7 14-15v-22c0-28-23-51-51-51h-160c-28 0-51 23-51 51v22c0 8 6 15 14 15s15-7 15-15v-22c0-12 10-22 22-22h160c12 0 22 10 22 22v22c0 8 7 15 15 15z" horiz-adv-x="1000" />

<glyph glyph-name="archive-2-fill" unicode="&#xe918;" d="M312 213v173h376v-173h-376z m347 58c0 8-7 14-15 14h-231c-8 0-14-6-14-14s6-15 14-15h231c8 0 15 7 15 15z m-169 68c-3-3-4-7-4-11 0-4 1-7 4-10 3-3 6-4 10-4 4 0 8 1 10 4 3 3 4 7 4 10 0 4-1 8-4 11-5 5-15 5-20 0z m-134 4c-8 0-15-7-15-15s7-14 15-14h86c8 0 15 6 15 14s-7 15-15 15h-86z m-11-62c-2-3-4-7-4-10 0-4 2-8 4-11 3-2 7-4 11-4 4 0 7 2 10 4 2 3 4 7 4 11 0 3-2 7-4 10-5 5-15 5-21 0z m-235-343v58h780v-58c0-8-6-14-14-14h-752c-7 0-14 6-14 14z m766 549c8 0 14-6 14-14v-448h-780v448c0 8 7 14 14 14h752z m-159-289v203c0 8-7 14-15 14h-404c-8 0-15-6-15-14v-203c0-8 7-14 15-14h404c8 0 15 6 15 14z m172 578c25 0 44-19 44-44v-201c0-8-6-15-14-15h-838c-8 0-14 7-14 15v201c0 25 19 44 44 44h778z m-259-202c40 0 72 32 72 72s-32 72-72 72h-260c-40 0-72-32-72-72s32-72 72-72h260z" horiz-adv-x="1000" />

<glyph glyph-name="archive-2" unicode="&#xe919;" d="M893 773c25 0 45-20 45-44v-204c0-8-7-15-15-15h-29v-568c0-8-7-15-15-15h-758c-8 0-15 7-15 15v568h-29c-8 0-14 7-14 15v204c0 24 19 44 44 44h786z m-28-817v44h-730v-44h730z m0 73v481h-730v-481h730z m43 510v190c0 8-6 15-15 15h-786c-8 0-15-7-15-15v-190h816z m-612-349c-8 0-15 6-15 14v204c0 8 7 15 15 15h408c8 0 15-7 15-15v-204c0-8-7-14-15-14h-408z m14 204v-175h380v175h-380z m44-73c-8 0-14 6-14 14s6 15 14 15h88c8 0 14-6 14-15s-6-14-14-14h-88z m146 0c-4 0-8 1-10 4-3 3-5 7-5 10 0 4 2 8 5 11 5 5 15 5 20 0 3-3 5-7 5-11 0-3-2-7-5-10-2-3-6-4-10-4z m146-29c8 0 14-7 14-15s-6-14-14-14h-233c-9 0-15 6-15 14s6 15 15 15h233z m-302-5c5 6 15 6 21 0 2-2 4-6 4-10 0-4-2-7-4-10-3-3-7-4-11-4-4 0-7 1-10 4-3 3-4 6-4 10 0 4 1 8 4 10z m287 427c41 0 73-32 73-72s-32-73-73-73h-262c-40 0-73 32-73 73s33 72 73 72h262z m0-116c24 0 44 19 44 44s-20 43-44 43h-262c-24 0-44-19-44-43s20-44 44-44h262z" horiz-adv-x="1000" />

<glyph glyph-name="archive-3-fill" unicode="&#xe91a;" d="M899 783c19 0 34-15 34-34v-168h-866v168c0 19 15 34 35 34h797z m-789-803v572h780v-572c0-35-29-63-64-63h-652c-35 0-64 28-64 63z m751 110c-80 0-144-65-144-144h95c27 0 49 22 49 49v95z m-491 289v-22c0-28 23-50 51-50h158c28 0 51 22 51 50v22c0 8-6 14-14 14s-15-6-15-14v-22c0-12-10-21-22-21h-158c-12 0-22 9-22 21v22c0 8-7 14-15 14s-14-6-14-14z m-231-289v-95c0-27 22-49 49-49h95c0 79-64 144-144 144z" horiz-adv-x="1000" />

<glyph glyph-name="archive-3" unicode="&#xe91b;" d="M938 723v-169h-44v-548c0-36-29-64-65-64h-658c-36 0-65 28-65 64v548h-43v169c0 20 15 35 35 35h804c20 0 36-15 36-35z m-767-752h80c-6 61-55 109-116 116v-81c0-19 16-35 36-35z m694 35v81c-61-7-109-55-116-116h80c20 0 36 16 36 35z m0 110v438h-730v-438c77-7 139-68 146-145h439c6 77 68 138 145 145z m43 467v140c0 4-2 6-6 6h-804c-4 0-6-2-6-6v-140h816z m-714 59c-8 0-15 6-15 14s7 15 15 15c8 0 14-7 14-15s-6-14-14-14z m-44 43c-8 0-15 7-15 15s7 15 15 15c8 0 15-7 15-15s-7-15-15-15z m88 0c-9 0-15 7-15 15s6 15 15 15c8 0 14-7 14-15s-6-15-14-15z m-88-87c-8 0-15 6-15 15s7 14 15 14c8 0 15-6 15-14s-7-15-15-15z m88 0c-9 0-15 6-15 15s6 14 15 14c8 0 14-6 14-14s-6-15-14-15z m43 44c-8 0-14 6-14 14s6 15 14 15c8 0 15-7 15-15s-7-14-15-14z m88 0c-8 0-15 6-15 14s7 15 15 15c8 0 14-7 14-15s-6-14-14-14z m-44 43c-8 0-15 7-15 15s7 15 15 15c8 0 15-7 15-15s-7-15-15-15z m88 0c-9 0-15 7-15 15s6 15 15 15c8 0 14-7 14-15s-6-15-14-15z m-88-87c-8 0-15 6-15 15s7 14 15 14c8 0 15-6 15-14s-7-15-15-15z m88 0c-9 0-15 6-15 15s6 14 15 14c8 0 14-6 14-14s-6-15-14-15z m43 44c-8 0-14 6-14 14s6 15 14 15c8 0 15-7 15-15s-7-14-15-14z m88 0c-8 0-15 6-15 14s7 15 15 15c8 0 14-7 14-15s-6-14-14-14z m-44 43c-8 0-15 7-15 15s7 15 15 15c8 0 15-7 15-15s-7-15-15-15z m88 0c-9 0-15 7-15 15s6 15 15 15c8 0 14-7 14-15s-6-15-14-15z m-88-87c-8 0-15 6-15 15s7 14 15 14c8 0 15-6 15-14s-7-15-15-15z m88 0c-9 0-15 6-15 15s6 14 15 14c8 0 14-6 14-14s-6-15-14-15z m43 44c-8 0-14 6-14 14s6 15 14 15c8 0 15-7 15-15s-7-14-15-14z m88 0c-8 0-15 6-15 14s7 15 15 15c8 0 14-7 14-15s-6-14-14-14z m-44 43c-8 0-15 7-15 15s7 15 15 15c8 0 15-7 15-15s-7-15-15-15z m88 0c-9 0-15 7-15 15s6 15 15 15c8 0 14-7 14-15s-6-15-14-15z m-88-87c-8 0-15 6-15 15s7 14 15 14c8 0 15-6 15-14s-7-15-15-15z m88 0c-9 0-15 6-15 15s6 14 15 14c8 0 14-6 14-14s-6-15-14-15z m43 44c-8 0-14 6-14 14s6 15 14 15c8 0 15-7 15-15s-7-14-15-14z m44 43c-8 0-15 7-15 15s7 15 15 15c8 0 15-7 15-15s-7-15-15-15z m0-87c-8 0-15 6-15 15s7 14 15 14c8 0 15-6 15-14s-7-15-15-15z m-430-263c-28 0-51 23-51 52v21c0 8 6 15 14 15s15-7 15-15v-21c0-13 10-22 22-22h160c12 0 22 9 22 22v21c0 8 7 15 15 15s14-7 14-15v-21c0-29-23-52-51-52h-160z" horiz-adv-x="1000" />

<glyph glyph-name="archive-fill" unicode="&#xe91c;" d="M914 668c11 0 19-9 19-19v-111h-866v111c0 10 8 19 19 19h828z m-831 14c-7 0-12 4-15 10-2 5-2 12 3 17l90 74h678l87-74c4-5 5-12 2-17-2-6-8-10-14-10h-831z m229-621v145h376v-145h-376z m227 33c3 3 4 7 4 10 0 4-1 8-4 11-5 5-15 5-20 0-3-3-5-7-5-11 0-3 2-7 5-10 2-2 6-4 10-4s7 2 10 4z m77-4c8 0 14 7 14 14s-6 15-14 15h-15c-8 0-14-7-14-15s6-14 14-14h15z m-159 87c-8 0-15-7-15-15s7-14 15-14h159c8 0 14 6 14 14s-6 15-14 15h-159z m-83-4c-2-3-4-7-4-11 0-4 2-7 4-10 3-3 7-4 10-4 4 0 8 1 11 4 2 3 4 7 4 10 0 4-2 8-4 11-6 5-15 5-21 0z m10-54c-7 0-14-7-14-15s7-14 14-14h73c8 0 14 7 14 14s-6 15-14 15h-73z m-28 303h288v-86h-288v86z m-246-505v606h780v-606h-780z m217 534v-144h346v144h-346z m-44-217v-202h434v202h-434z" horiz-adv-x="1000" />

<glyph glyph-name="archive" unicode="&#xe91d;" d="M938 666v-156h-44v-598h-788v598h-43v156c0 3 0 6 1 8 1 3 2 6 4 9l90 105h684l90-105c2-3 3-6 4-9 1-2 2-5 2-8z m-767 92l-62-73h782l-62 73h-658z m694-816v568h-730v-568h730z m43 598v116h-816v-116h816z m-233-88v-146h-350v146h350z m-29-117v88h-292v-88h292z m73-102v-204h-438v204h438z m-29-175v146h-380v-146h380z m-307 30c-8 0-14 6-14 14s6 15 14 15h73c8 0 15-7 15-15s-7-14-15-14h-73z m73 58c-8 0-14 6-14 14s6 15 14 15h161c8 0 14-6 14-15s-6-14-14-14h-161z m-73 0c-4 0-7 1-10 4-3 3-4 7-4 10 0 4 1 8 4 11 6 5 15 5 21 0 2-3 4-7 4-11 0-3-2-7-4-10-3-3-7-4-11-4z m136-34c5 6 15 6 21 0 2-2 4-6 4-10 0-4-2-7-4-10-3-3-7-4-11-4s-7 1-10 4c-3 3-4 6-4 10 0 4 1 8 4 10z m98 5c8 0 14-7 14-15s-6-14-14-14h-15c-8 0-14 6-14 14s6 15 14 15h15z" horiz-adv-x="1000" />

<glyph glyph-name="attachment-fill" unicode="&#xe91e;" d="M302-77c-58 0-112 22-153 63s-63 95-63 152c0 58 22 112 63 153l446 446c64 64 164 61 231-6s71-167 7-231l-419-419c-40-40-104-40-143 0-40 39-40 103 0 142l284 284c9 10 25 10 35 0s9-25 0-34l-284-284c-21-21-21-54 0-74 20-20 53-20 73 0l419 420c44 44 41 113-6 161s-118 51-162 7l-446-447c-32-31-49-73-49-118 0-44 17-86 49-117s73-49 118-49c44 0 86 17 118 49l446 446c10 9 25 9 35 0s9-25 0-35l-447-446c-40-41-94-63-152-63z" horiz-adv-x="1000" />

<glyph glyph-name="attachment" unicode="&#xe91f;" d="M899 454c-7 6-17 6-24 0l-450-451c-34-33-78-51-125-51-48 0-92 18-125 51s-52 78-52 125c0 48 19 92 52 125l450 451c48 48 123 45 175-7 52-52 55-127 7-175l-423-423c-24-24-63-24-86 0-24 24-24 62 0 86l287 287c6 6 6 16 0 23s-17 6-24 0l-287-287c-36-36-36-96 0-132 37-37 97-37 133 0l423 423c61 61 59 156-6 221-66 65-161 68-222 7l-450-451c-40-39-62-92-62-148s22-109 62-148c39-40 92-61 148-61 56 0 109 21 148 61l451 451c6 6 6 17 0 23z" horiz-adv-x="1000" />

<glyph glyph-name="back-fill" unicode="&#xe920;" d="M809 781c-7 4-15 3-21-1l-567-391v374c0 11-9 20-20 20s-21-9-21-20v-826c0-11 9-20 21-20s20 9 20 20v374l567-391c3-2 7-3 11-3 4 0 7 0 10 2 7 4 11 11 11 18v826c0 7-4 14-11 18z" horiz-adv-x="1000" />

<glyph glyph-name="back" unicode="&#xe921;" d="M812 785c-7 4-15 3-22-1l-571-394v377c0 11-10 21-21 21s-21-10-21-21v-834c0-11 9-21 21-21s21 10 21 21v377l571-394c4-2 8-4 12-4 3 0 7 1 10 3 7 3 11 11 11 18v834c0 7-4 15-11 18z m-31-812l-546 377 546 377v-754z" horiz-adv-x="1000" />

<glyph glyph-name="battery-1-fill" unicode="&#xe922;" d="M681 726h-94v57h-174v-57h-94c-28 0-50-23-50-50v-709c0-28 22-50 50-50h362c28 0 50 22 50 50v709c0 27-22 50-50 50z" horiz-adv-x="1000" />

<glyph glyph-name="battery-1" unicode="&#xe923;" d="M683 729c28 0 50-22 50-50v-716c0-28-22-51-50-51h-366c-28 0-50 23-50 51v716c0 28 22 50 50 50h96v59h175v-59h95z m-241 29v-29h116v29h-116z m262-145v66c0 4-1 8-3 12-3-3-7-6-11-6-8 0-15 7-15 15h-58c0-8-7-15-15-15s-14 7-14 15h-59c0-8-6-15-14-15s-15 7-15 15h-58c0-8-7-15-15-15s-14 7-14 15h-59c0-8-6-15-14-15s-15 7-15 15h-8c-12 0-21-10-21-21v-8c8 0 14-7 14-15s-6-14-14-14v-59c8 0 14-6 14-14s-6-15-14-15v-58c8 0 14-7 14-15s-6-14-14-14v-59c8 0 14-6 14-14s-6-15-14-15v-58c8 0 14-7 14-15s-6-14-14-14v-59c8 0 14-6 14-14s-6-15-14-15v-58c8 0 14-7 14-15s-6-14-14-14v-59c8 0 14-6 14-14s-6-15-14-15v-58c8 0 14-7 14-15 0-4-2-8-5-11 4-2 8-3 12-3h366c12 0 21 9 21 21v650z m-364-15c-8 0-15 6-15 15s7 14 15 14c8 0 14-6 14-14s-6-15-14-15z m43 44c-8 0-14 6-14 14s6 15 14 15c8 0 15-7 15-15s-7-14-15-14z m0-88c-8 0-14 7-14 15s6 14 14 14c8 0 15-6 15-14s-7-15-15-15z m44 44c-8 0-14 6-14 15s6 14 14 14c8 0 15-6 15-14s-7-15-15-15z m88 0c-8 0-15 6-15 15s7 14 15 14c8 0 14-6 14-14s-6-15-14-15z m-44 44c-8 0-15 6-15 14s7 15 15 15c8 0 14-7 14-15s-6-14-14-14z m87 0c-8 0-14 6-14 14s6 15 14 15c8 0 15-7 15-15s-7-14-15-14z m-87-88c-8 0-15 7-15 15s7 14 15 14c8 0 14-6 14-14s-6-15-14-15z m87 0c-8 0-14 7-14 15s6 14 14 14c8 0 15-6 15-14s-7-15-15-15z m44 44c-8 0-14 6-14 15s6 14 14 14c8 0 15-6 15-14s-7-15-15-15z m88 0c-8 0-15 6-15 15s7 14 15 14c8 0 14-6 14-14s-6-15-14-15z m-44 44c-8 0-15 6-15 14s7 15 15 15c8 0 14-7 14-15s-6-14-14-14z m0-88c-8 0-15 7-15 15s7 14 15 14c8 0 14-6 14-14s-6-15-14-15z m-306-44c-8 0-15 7-15 15s7 15 15 15c8 0 14-7 14-15s-6-15-14-15z m0-87c-8 0-15 6-15 15s7 14 15 14c8 0 14-6 14-14s-6-15-14-15z m43 44c-8 0-14 6-14 14s6 15 14 15c8 0 15-7 15-15s-7-14-15-14z m0-88c-8 0-14 7-14 15s6 14 14 14c8 0 15-6 15-14s-7-15-15-15z m44 131c-8 0-14 7-14 15s6 15 14 15c8 0 15-7 15-15s-7-15-15-15z m88 0c-8 0-15 7-15 15s7 15 15 15c8 0 14-7 14-15s-6-15-14-15z m-88-87c-8 0-14 6-14 15s6 14 14 14c8 0 15-6 15-14s-7-15-15-15z m88 0c-8 0-15 6-15 15s7 14 15 14c8 0 14-6 14-14s-6-15-14-15z m-44 44c-8 0-15 6-15 14s7 15 15 15c8 0 14-7 14-15s-6-14-14-14z m87 0c-8 0-14 6-14 14s6 15 14 15c8 0 15-7 15-15s-7-14-15-14z m-87-88c-8 0-15 7-15 15s7 14 15 14c8 0 14-6 14-14s-6-15-14-15z m87 0c-8 0-14 7-14 15s6 14 14 14c8 0 15-6 15-14s-7-15-15-15z m44 131c-8 0-14 7-14 15s6 15 14 15c8 0 15-7 15-15s-7-15-15-15z m88 0c-8 0-15 7-15 15s7 15 15 15c8 0 14-7 14-15s-6-15-14-15z m-88-87c-8 0-14 6-14 15s6 14 14 14c8 0 15-6 15-14s-7-15-15-15z m88 0c-8 0-15 6-15 15s7 14 15 14c8 0 14-6 14-14s-6-15-14-15z m-44 44c-8 0-15 6-15 14s7 15 15 15c8 0 14-7 14-15s-6-14-14-14z m0-88c-8 0-15 7-15 15s7 14 15 14c8 0 14-6 14-14s-6-15-14-15z m-306-44c-8 0-15 7-15 15s7 15 15 15c8 0 14-7 14-15s-6-15-14-15z m0-87c-8 0-15 6-15 15s7 14 15 14c8 0 14-6 14-14s-6-15-14-15z m43 44c-8 0-14 6-14 14s6 15 14 15c8 0 15-7 15-15s-7-14-15-14z m0-88c-8 0-14 7-14 15s6 14 14 14c8 0 15-6 15-14s-7-15-15-15z m44 131c-8 0-14 7-14 15s6 15 14 15c8 0 15-7 15-15s-7-15-15-15z m88 0c-8 0-15 7-15 15s7 15 15 15c8 0 14-7 14-15s-6-15-14-15z m-88-87c-8 0-14 6-14 15s6 14 14 14c8 0 15-6 15-14s-7-15-15-15z m88 0c-8 0-15 6-15 15s7 14 15 14c8 0 14-6 14-14s-6-15-14-15z m-44 44c-8 0-15 6-15 14s7 15 15 15c8 0 14-7 14-15s-6-14-14-14z m87 0c-8 0-14 6-14 14s6 15 14 15c8 0 15-7 15-15s-7-14-15-14z m-87-88c-8 0-15 7-15 15s7 14 15 14c8 0 14-6 14-14s-6-15-14-15z m87 0c-8 0-14 7-14 15s6 14 14 14c8 0 15-6 15-14s-7-15-15-15z m44 131c-8 0-14 7-14 15s6 15 14 15c8 0 15-7 15-15s-7-15-15-15z m88 0c-8 0-15 7-15 15s7 15 15 15c8 0 14-7 14-15s-6-15-14-15z m-88-87c-8 0-14 6-14 15s6 14 14 14c8 0 15-6 15-14s-7-15-15-15z m88 0c-8 0-15 6-15 15s7 14 15 14c8 0 14-6 14-14s-6-15-14-15z m-44 44c-8 0-15 6-15 14s7 15 15 15c8 0 14-7 14-15s-6-14-14-14z m0-88c-8 0-15 7-15 15s7 14 15 14c8 0 14-6 14-14s-6-15-14-15z m-306-44c-8 0-15 7-15 15s7 15 15 15c8 0 14-7 14-15s-6-15-14-15z m0-87c-8 0-15 6-15 15s7 14 15 14c8 0 14-6 14-14s-6-15-14-15z m43 44c-8 0-14 6-14 14s6 15 14 15c8 0 15-7 15-15s-7-14-15-14z m0-88c-8 0-14 7-14 15s6 14 14 14c8 0 15-6 15-14s-7-15-15-15z m44 131c-8 0-14 7-14 15s6 15 14 15c8 0 15-7 15-15s-7-15-15-15z m88 0c-8 0-15 7-15 15s7 15 15 15c8 0 14-7 14-15s-6-15-14-15z m-88-87c-8 0-14 6-14 15s6 14 14 14c8 0 15-6 15-14s-7-15-15-15z m88 0c-8 0-15 6-15 15s7 14 15 14c8 0 14-6 14-14s-6-15-14-15z m-44 44c-8 0-15 6-15 14s7 15 15 15c8 0 14-7 14-15s-6-14-14-14z m87 0c-8 0-14 6-14 14s6 15 14 15c8 0 15-7 15-15s-7-14-15-14z m-87-88c-8 0-15 7-15 15s7 14 15 14c8 0 14-6 14-14s-6-15-14-15z m87 0c-8 0-14 7-14 15s6 14 14 14c8 0 15-6 15-14s-7-15-15-15z m44 131c-8 0-14 7-14 15s6 15 14 15c8 0 15-7 15-15s-7-15-15-15z m88 0c-8 0-15 7-15 15s7 15 15 15c8 0 14-7 14-15s-6-15-14-15z m-88-87c-8 0-14 6-14 15s6 14 14 14c8 0 15-6 15-14s-7-15-15-15z m88 0c-8 0-15 6-15 15s7 14 15 14c8 0 14-6 14-14s-6-15-14-15z m-44 44c-8 0-15 6-15 14s7 15 15 15c8 0 14-7 14-15s-6-14-14-14z m0-88c-8 0-15 7-15 15s7 14 15 14c8 0 14-6 14-14s-6-15-14-15z m-306-44c-8 0-15 7-15 15s7 15 15 15c8 0 14-7 14-15s-6-15-14-15z m43-43c-8 0-14 6-14 14s6 15 14 15c8 0 15-7 15-15s-7-14-15-14z m44 43c-8 0-14 7-14 15s6 15 14 15c8 0 15-7 15-15s-7-15-15-15z m88 0c-8 0-15 7-15 15s7 15 15 15c8 0 14-7 14-15s-6-15-14-15z m-44-43c-8 0-15 6-15 14s7 15 15 15c8 0 14-7 14-15s-6-14-14-14z m87 0c-8 0-14 6-14 14s6 15 14 15c8 0 15-7 15-15s-7-14-15-14z m44 43c-8 0-14 7-14 15s6 15 14 15c8 0 15-7 15-15s-7-15-15-15z m88 0c-8 0-15 7-15 15s7 15 15 15c8 0 14-7 14-15s-6-15-14-15z m-44-43c-8 0-15 6-15 14s7 15 15 15c8 0 14-7 14-15s-6-14-14-14z" horiz-adv-x="1000" />

<glyph glyph-name="battery-2-fill" unicode="&#xe924;" d="M269 451h462v-484c0-28-22-50-50-50h-362c-28 0-50 22-50 50v484z m462 29h-462v196c0 27 22 50 50 50h94v57h174v-57h94c28 0 50-23 50-50v-196z m-433 196v-167h404v167c0 11-9 21-21 21h-362c-12 0-21-10-21-21z" horiz-adv-x="1000" />

<glyph glyph-name="battery-2" unicode="&#xe925;" d="M683 729c28 0 50-22 50-50v-716c0-28-22-51-50-51h-366c-28 0-50 23-50 51v716c0 28 22 50 50 50h96v59h175v-59h95z m-241 29v-29h116v29h-116z m-125-58c-12 0-21-10-21-21v-169h408v169c0 11-9 21-21 21h-366z m387-350v131h-44c0-8-6-14-14-14s-15 6-15 14h-58c0-8-7-14-15-14s-14 6-14 14h-59c0-8-6-14-14-14s-15 6-15 14h-58c0-8-7-14-15-14s-14 6-14 14h-59c0-8-6-14-14-14v-59c8 0 14-6 14-14s-6-15-14-15v-58c8 0 14-7 14-15s-6-14-14-14v-59c8 0 14-6 14-14s-6-15-14-15v-58c8 0 14-7 14-15s-6-14-14-14v-59c8 0 14-6 14-14s-6-15-14-15v-58c8 0 14-7 14-15 0-4-2-8-5-11 4-2 8-3 12-3h366c12 0 21 9 21 21v387z m-364 73c-8 0-15 6-15 15s7 14 15 14c8 0 14-6 14-14s-6-15-14-15z m43-44c-8 0-14 7-14 15s6 14 14 14c8 0 15-6 15-14s-7-15-15-15z m44 44c-8 0-14 6-14 15s6 14 14 14c8 0 15-6 15-14s-7-15-15-15z m88 0c-8 0-15 6-15 15s7 14 15 14c8 0 14-6 14-14s-6-15-14-15z m-44-44c-8 0-15 7-15 15s7 14 15 14c8 0 14-6 14-14s-6-15-14-15z m87 0c-8 0-14 7-14 15s6 14 14 14c8 0 15-6 15-14s-7-15-15-15z m44 44c-8 0-14 6-14 15s6 14 14 14c8 0 15-6 15-14s-7-15-15-15z m88 0c-8 0-15 6-15 15s7 14 15 14c8 0 14-6 14-14s-6-15-14-15z m-44-44c-8 0-15 7-15 15s7 14 15 14c8 0 14-6 14-14s-6-15-14-15z m-306-44c-8 0-15 7-15 15s7 15 15 15c8 0 14-7 14-15s-6-15-14-15z m0-87c-8 0-15 6-15 15s7 14 15 14c8 0 14-6 14-14s-6-15-14-15z m43 44c-8 0-14 6-14 14s6 15 14 15c8 0 15-7 15-15s-7-14-15-14z m0-88c-8 0-14 7-14 15s6 14 14 14c8 0 15-6 15-14s-7-15-15-15z m44 131c-8 0-14 7-14 15s6 15 14 15c8 0 15-7 15-15s-7-15-15-15z m88 0c-8 0-15 7-15 15s7 15 15 15c8 0 14-7 14-15s-6-15-14-15z m-88-87c-8 0-14 6-14 15s6 14 14 14c8 0 15-6 15-14s-7-15-15-15z m88 0c-8 0-15 6-15 15s7 14 15 14c8 0 14-6 14-14s-6-15-14-15z m-44 44c-8 0-15 6-15 14s7 15 15 15c8 0 14-7 14-15s-6-14-14-14z m87 0c-8 0-14 6-14 14s6 15 14 15c8 0 15-7 15-15s-7-14-15-14z m-87-88c-8 0-15 7-15 15s7 14 15 14c8 0 14-6 14-14s-6-15-14-15z m87 0c-8 0-14 7-14 15s6 14 14 14c8 0 15-6 15-14s-7-15-15-15z m44 131c-8 0-14 7-14 15s6 15 14 15c8 0 15-7 15-15s-7-15-15-15z m88 0c-8 0-15 7-15 15s7 15 15 15c8 0 14-7 14-15s-6-15-14-15z m-88-87c-8 0-14 6-14 15s6 14 14 14c8 0 15-6 15-14s-7-15-15-15z m88 0c-8 0-15 6-15 15s7 14 15 14c8 0 14-6 14-14s-6-15-14-15z m-44 44c-8 0-15 6-15 14s7 15 15 15c8 0 14-7 14-15s-6-14-14-14z m0-88c-8 0-15 7-15 15s7 14 15 14c8 0 14-6 14-14s-6-15-14-15z m-306-44c-8 0-15 7-15 15s7 15 15 15c8 0 14-7 14-15s-6-15-14-15z m0-87c-8 0-15 6-15 15s7 14 15 14c8 0 14-6 14-14s-6-15-14-15z m43 44c-8 0-14 6-14 14s6 15 14 15c8 0 15-7 15-15s-7-14-15-14z m0-88c-8 0-14 7-14 15s6 14 14 14c8 0 15-6 15-14s-7-15-15-15z m44 131c-8 0-14 7-14 15s6 15 14 15c8 0 15-7 15-15s-7-15-15-15z m88 0c-8 0-15 7-15 15s7 15 15 15c8 0 14-7 14-15s-6-15-14-15z m-88-87c-8 0-14 6-14 15s6 14 14 14c8 0 15-6 15-14s-7-15-15-15z m88 0c-8 0-15 6-15 15s7 14 15 14c8 0 14-6 14-14s-6-15-14-15z m-44 44c-8 0-15 6-15 14s7 15 15 15c8 0 14-7 14-15s-6-14-14-14z m87 0c-8 0-14 6-14 14s6 15 14 15c8 0 15-7 15-15s-7-14-15-14z m-87-88c-8 0-15 7-15 15s7 14 15 14c8 0 14-6 14-14s-6-15-14-15z m87 0c-8 0-14 7-14 15s6 14 14 14c8 0 15-6 15-14s-7-15-15-15z m44 131c-8 0-14 7-14 15s6 15 14 15c8 0 15-7 15-15s-7-15-15-15z m88 0c-8 0-15 7-15 15s7 15 15 15c8 0 14-7 14-15s-6-15-14-15z m-88-87c-8 0-14 6-14 15s6 14 14 14c8 0 15-6 15-14s-7-15-15-15z m88 0c-8 0-15 6-15 15s7 14 15 14c8 0 14-6 14-14s-6-15-14-15z m-44 44c-8 0-15 6-15 14s7 15 15 15c8 0 14-7 14-15s-6-14-14-14z m0-88c-8 0-15 7-15 15s7 14 15 14c8 0 14-6 14-14s-6-15-14-15z m-306-44c-8 0-15 7-15 15s7 15 15 15c8 0 14-7 14-15s-6-15-14-15z m43-43c-8 0-14 6-14 14s6 15 14 15c8 0 15-7 15-15s-7-14-15-14z m44 43c-8 0-14 7-14 15s6 15 14 15c8 0 15-7 15-15s-7-15-15-15z m88 0c-8 0-15 7-15 15s7 15 15 15c8 0 14-7 14-15s-6-15-14-15z m-44-43c-8 0-15 6-15 14s7 15 15 15c8 0 14-7 14-15s-6-14-14-14z m87 0c-8 0-14 6-14 14s6 15 14 15c8 0 15-7 15-15s-7-14-15-14z m44 43c-8 0-14 7-14 15s6 15 14 15c8 0 15-7 15-15s-7-15-15-15z m88 0c-8 0-15 7-15 15s7 15 15 15c8 0 14-7 14-15s-6-15-14-15z m-44-43c-8 0-15 6-15 14s7 15 15 15c8 0 14-7 14-15s-6-14-14-14z" horiz-adv-x="1000" />

<glyph glyph-name="battery-3-fill" unicode="&#xe926;" d="M269 263h462v-296c0-28-22-50-50-50h-362c-28 0-50 22-50 50v296z m462 29h-462v384c0 27 22 50 50 50h94v57h174v-57h94c28 0 50-23 50-50v-384z m-433 384v-355h404v355c0 11-9 21-21 21h-362c-12 0-21-10-21-21z" horiz-adv-x="1000" />

<glyph glyph-name="battery-3" unicode="&#xe927;" d="M683 729c28 0 50-22 50-50v-716c0-28-22-51-50-51h-366c-28 0-50 23-50 51v716c0 28 22 50 50 50h96v59h175v-59h95z m-241 29v-29h116v29h-116z m-125-58c-12 0-21-10-21-21v-358h408v358c0 11-9 21-21 21h-366z m387-525v117h-408v-59c8 0 14-6 14-14s-6-15-14-15v-58c8 0 14-7 14-15s-6-14-14-14v-59c8 0 14-6 14-14s-6-15-14-15v-58c8 0 14-7 14-15 0-4-2-8-5-11 4-2 8-3 12-3h366c12 0 21 9 21 21v212z m-364 73c-8 0-15 6-15 15s7 14 15 14c8 0 14-6 14-14s-6-15-14-15z m43-44c-8 0-14 7-14 15s6 14 14 14c8 0 15-6 15-14s-7-15-15-15z m44 44c-8 0-14 6-14 15s6 14 14 14c8 0 15-6 15-14s-7-15-15-15z m88 0c-8 0-15 6-15 15s7 14 15 14c8 0 14-6 14-14s-6-15-14-15z m-44-44c-8 0-15 7-15 15s7 14 15 14c8 0 14-6 14-14s-6-15-14-15z m87 0c-8 0-14 7-14 15s6 14 14 14c8 0 15-6 15-14s-7-15-15-15z m44 44c-8 0-14 6-14 15s6 14 14 14c8 0 15-6 15-14s-7-15-15-15z m88 0c-8 0-15 6-15 15s7 14 15 14c8 0 14-6 14-14s-6-15-14-15z m-44-44c-8 0-15 7-15 15s7 14 15 14c8 0 14-6 14-14s-6-15-14-15z m-306-44c-8 0-15 7-15 15s7 15 15 15c8 0 14-7 14-15s-6-15-14-15z m0-87c-8 0-15 6-15 15s7 14 15 14c8 0 14-6 14-14s-6-15-14-15z m43 44c-8 0-14 6-14 14s6 15 14 15c8 0 15-7 15-15s-7-14-15-14z m0-88c-8 0-14 7-14 15s6 14 14 14c8 0 15-6 15-14s-7-15-15-15z m44 131c-8 0-14 7-14 15s6 15 14 15c8 0 15-7 15-15s-7-15-15-15z m88 0c-8 0-15 7-15 15s7 15 15 15c8 0 14-7 14-15s-6-15-14-15z m-88-87c-8 0-14 6-14 15s6 14 14 14c8 0 15-6 15-14s-7-15-15-15z m88 0c-8 0-15 6-15 15s7 14 15 14c8 0 14-6 14-14s-6-15-14-15z m-44 44c-8 0-15 6-15 14s7 15 15 15c8 0 14-7 14-15s-6-14-14-14z m87 0c-8 0-14 6-14 14s6 15 14 15c8 0 15-7 15-15s-7-14-15-14z m-87-88c-8 0-15 7-15 15s7 14 15 14c8 0 14-6 14-14s-6-15-14-15z m87 0c-8 0-14 7-14 15s6 14 14 14c8 0 15-6 15-14s-7-15-15-15z m44 131c-8 0-14 7-14 15s6 15 14 15c8 0 15-7 15-15s-7-15-15-15z m88 0c-8 0-15 7-15 15s7 15 15 15c8 0 14-7 14-15s-6-15-14-15z m-88-87c-8 0-14 6-14 15s6 14 14 14c8 0 15-6 15-14s-7-15-15-15z m88 0c-8 0-15 6-15 15s7 14 15 14c8 0 14-6 14-14s-6-15-14-15z m-44 44c-8 0-15 6-15 14s7 15 15 15c8 0 14-7 14-15s-6-14-14-14z m0-88c-8 0-15 7-15 15s7 14 15 14c8 0 14-6 14-14s-6-15-14-15z m-306-44c-8 0-15 7-15 15s7 15 15 15c8 0 14-7 14-15s-6-15-14-15z m43-43c-8 0-14 6-14 14s6 15 14 15c8 0 15-7 15-15s-7-14-15-14z m44 43c-8 0-14 7-14 15s6 15 14 15c8 0 15-7 15-15s-7-15-15-15z m88 0c-8 0-15 7-15 15s7 15 15 15c8 0 14-7 14-15s-6-15-14-15z m-44-43c-8 0-15 6-15 14s7 15 15 15c8 0 14-7 14-15s-6-14-14-14z m87 0c-8 0-14 6-14 14s6 15 14 15c8 0 15-7 15-15s-7-14-15-14z m44 43c-8 0-14 7-14 15s6 15 14 15c8 0 15-7 15-15s-7-15-15-15z m88 0c-8 0-15 7-15 15s7 15 15 15c8 0 14-7 14-15s-6-15-14-15z m-44-43c-8 0-15 6-15 14s7 15 15 15c8 0 14-7 14-15s-6-14-14-14z" horiz-adv-x="1000" />

<glyph glyph-name="battery-4-fill" unicode="&#xe928;" d="M269 104h462v-137c0-28-22-50-50-50h-362c-28 0-50 22-50 50v137z m462 29h-462v543c0 27 22 50 50 50h94v57h174v-57h94c28 0 50-23 50-50v-543z m-433 543v-514h404v514c0 11-9 21-21 21h-362c-12 0-21-10-21-21z" horiz-adv-x="1000" />

<glyph glyph-name="battery-4" unicode="&#xe929;" d="M683 729c28 0 50-22 50-50v-716c0-28-22-51-50-51h-366c-28 0-50 23-50 51v716c0 28 22 50 50 50h96v59h175v-59h95z m-241 29v-29h116v29h-116z m-125-58c-12 0-21-10-21-21v-548h408v548c0 11-9 21-21 21h-366z m387-700v102h-408v-44c8 0 14-6 14-14s-6-15-14-15v-58c8 0 14-7 14-15 0-4-2-8-5-11 4-2 8-3 12-3h366c12 0 21 9 21 21v37z m-364 73c-8 0-15 6-15 15s7 14 15 14c8 0 14-6 14-14s-6-15-14-15z m43-44c-8 0-14 7-14 15s6 14 14 14c8 0 15-6 15-14s-7-15-15-15z m44 44c-8 0-14 6-14 15s6 14 14 14c8 0 15-6 15-14s-7-15-15-15z m88 0c-8 0-15 6-15 15s7 14 15 14c8 0 14-6 14-14s-6-15-14-15z m-44-44c-8 0-15 7-15 15s7 14 15 14c8 0 14-6 14-14s-6-15-14-15z m87 0c-8 0-14 7-14 15s6 14 14 14c8 0 15-6 15-14s-7-15-15-15z m44 44c-8 0-14 6-14 15s6 14 14 14c8 0 15-6 15-14s-7-15-15-15z m88 0c-8 0-15 6-15 15s7 14 15 14c8 0 14-6 14-14s-6-15-14-15z m-44-44c-8 0-15 7-15 15s7 14 15 14c8 0 14-6 14-14s-6-15-14-15z m-306-44c-8 0-15 7-15 15s7 15 15 15c8 0 14-7 14-15s-6-15-14-15z m43-43c-8 0-14 6-14 14s6 15 14 15c8 0 15-7 15-15s-7-14-15-14z m44 43c-8 0-14 7-14 15s6 15 14 15c8 0 15-7 15-15s-7-15-15-15z m88 0c-8 0-15 7-15 15s7 15 15 15c8 0 14-7 14-15s-6-15-14-15z m-44-43c-8 0-15 6-15 14s7 15 15 15c8 0 14-7 14-15s-6-14-14-14z m87 0c-8 0-14 6-14 14s6 15 14 15c8 0 15-7 15-15s-7-14-15-14z m44 43c-8 0-14 7-14 15s6 15 14 15c8 0 15-7 15-15s-7-15-15-15z m88 0c-8 0-15 7-15 15s7 15 15 15c8 0 14-7 14-15s-6-15-14-15z m-44-43c-8 0-15 6-15 14s7 15 15 15c8 0 14-7 14-15s-6-14-14-14z" horiz-adv-x="1000" />

<glyph glyph-name="battery-5-fill" unicode="&#xe92a;" d="M269 509h462v-173h-462v173z m0-202h462v-174h-462v174z m412 419c28 0 50-23 50-50v-138h-462v138c0 27 22 50 50 50h94v57h174v-57h94z m-412-759v137h462v-137c0-28-22-50-50-50h-362c-28 0-50 22-50 50z" horiz-adv-x="1000" />

<glyph glyph-name="battery-5" unicode="&#xe92b;" d="M683 729h-95v59h-175v-59h-96c-28 0-50-22-50-50v-716c0-28 22-51 50-51h366c28 0 50 23 50 51v716c0 28-22 50-50 50z m-387-219h408v-175h-408v175z m0-204h408v-175h-408v175z m146 452h116v-29h-116v29z m-125-58h366c12 0 21-10 21-21v-139h-408v139c0 11 9 21 21 21z m366-758h-366c-12 0-21 9-21 21v139h408v-139c0-12-9-21-21-21z" horiz-adv-x="1000" />

<glyph glyph-name="battery-6-fill" unicode="&#xe92c;" d="M269 104h462v-137c0-28-22-50-50-50h-362c-28 0-50 22-50 50v137z m462 29h-462v543c0 27 22 50 50 50h94v57h174v-57h94c28 0 50-23 50-50v-543z m-433 543v-340h404v340c0 11-9 21-21 21h-362c-12 0-21-10-21-21z" horiz-adv-x="1000" />

<glyph glyph-name="battery-6" unicode="&#xe92d;" d="M683 729h-95v59h-175v-59h-96c-28 0-50-22-50-50v-716c0-28 22-51 50-51h366c28 0 50 23 50 51v716c0 28-22 50-50 50z m-387-423h408v-175h-408v175z m146 452h116v-29h-116v29z m-125-58h366c12 0 21-10 21-21v-344h-408v344c0 11 9 21 21 21z m366-758h-366c-12 0-21 9-21 21v139h408v-139c0-12-9-21-21-21z" horiz-adv-x="1000" />

<glyph glyph-name="battery-7-fill" unicode="&#xe92e;" d="M681 726h-94v57h-174v-57h-94c-28 0-50-23-50-50v-709c0-28 22-50 50-50h362c28 0 50 22 50 50v709c0 27-22 50-50 50z m-362-29h362c12 0 21-10 21-21v-543h-404v543c0 11 9 21 21 21z" horiz-adv-x="1000" />

<glyph glyph-name="battery-7" unicode="&#xe92f;" d="M683 729h-95v59h-175v-59h-96c-28 0-50-22-50-50v-716c0-28 22-51 50-51h366c28 0 50 23 50 51v716c0 28-22 50-50 50z m-241 29h116v-29h-116v29z m-125-58h366c12 0 21-10 21-21v-548h-408v548c0 11 9 21 21 21z m366-758h-366c-12 0-21 9-21 21v139h408v-139c0-12-9-21-21-21z" horiz-adv-x="1000" />

<glyph glyph-name="battery-8-fill" unicode="&#xe930;" d="M681 726h-94v57h-174v-57h-94c-28 0-50-23-50-50v-709c0-28 22-50 50-50h362c28 0 50 22 50 50v709c0 27-22 50-50 50z m21-759c0-12-9-21-21-21h-362c-12 0-21 9-21 21v709c0 11 9 21 21 21h362c12 0 21-10 21-21v-709z" horiz-adv-x="1000" />

<glyph glyph-name="battery-8" unicode="&#xe931;" d="M683 729h-95v59h-175v-59h-96c-28 0-50-22-50-50v-716c0-28 22-51 50-51h366c28 0 50 23 50 51v716c0 28-22 50-50 50z m-241 29h116v-29h-116v29z m262-795c0-12-9-21-21-21h-366c-12 0-21 9-21 21v716c0 11 9 21 21 21h366c12 0 21-10 21-21v-716z" horiz-adv-x="1000" />

<glyph glyph-name="battery-9-fill" unicode="&#xe932;" d="M240 437c-8 0-14 6-14 14s6 15 14 15c8 0 14-7 14-15s-6-14-14-14z m43 43c-8 0-14 7-14 14s6 15 14 15c8 0 15-7 15-15s-7-14-15-14z m0-87c-8 0-14 7-14 15s6 14 14 14c8 0 15-6 15-14s-7-15-15-15z m44 44c-8 0-15 6-15 14s7 15 15 15c8 0 14-7 14-15s-6-14-14-14z m43-44c-8 0-14 7-14 15s6 14 14 14c8 0 14-6 14-14s-6-15-14-15z m-130-43c-8 0-14 7-14 14s6 15 14 15c8 0 14-7 14-15s-6-14-14-14z m0-87c-8 0-14 7-14 15s6 14 14 14c8 0 14-6 14-14s-6-15-14-15z m43 44c-8 0-14 6-14 14s6 15 14 15c8 0 15-7 15-15s-7-14-15-14z m0-87c-8 0-14 7-14 14s6 15 14 15c8 0 15-7 15-15s-7-14-15-14z m44 130c-8 0-15 7-15 14s7 15 15 15c8 0 14-7 14-15s-6-14-14-14z m0-87c-8 0-15 7-15 15s7 14 15 14c8 0 14-6 14-14s-6-15-14-15z m86 0c-8 0-14 7-14 15s6 14 14 14c8 0 15-6 15-14s-7-15-15-15z m-43 44c-8 0-14 6-14 14s6 15 14 15c8 0 14-7 14-15s-6-14-14-14z m303-73c-8 0-14 7-14 15s6 14 14 14c8 0 15-6 15-14s-7-15-15-15z m29-101c-8 0-14 7-14 15s6 14 14 14c8 0 15-6 15-14s-7-15-15-15z m0 58c-8 0-14 7-14 15s6 14 14 14c8 0 15-6 15-14s-7-15-15-15z m29-101c-8 0-14 7-14 14s6 15 14 15c8 0 15-7 15-15s-7-14-15-14z m15-43c-8 0-15 6-15 14s7 15 15 15c8 0 14-7 14-15s-6-14-14-14z m43-58c-8 0-15 6-15 14s7 15 15 15c8 0 14-7 14-15s-6-14-14-14z m-29 144c-8 0-14 7-14 15s6 14 14 14c8 0 14-6 14-14s-6-15-14-15z m0 58c-8 0-14 7-14 15s6 14 14 14c8 0 14-6 14-14s-6-15-14-15z m29-115c-8 0-15 6-15 14s7 14 15 14c8 0 14-6 14-14s-6-14-14-14z m-43-87c-8 0-15 6-15 14s7 15 15 15c8 0 14-7 14-15s-6-14-14-14z m72 43c-8 0-15 7-15 15s7 14 15 14c8 0 14-6 14-14s-6-15-14-15z m-15-101c-8 0-14 7-14 15s6 14 14 14c8 0 15-7 15-14s-7-15-15-15z m-433 289c-8 0-14 7-14 14s6 15 14 15c8 0 14-7 14-15s-6-14-14-14z m-130-43c-8 0-14 6-14 14s6 15 14 15c8 0 14-7 14-15s-6-14-14-14z m0-87c-8 0-14 7-14 14s6 15 14 15c8 0 14-7 14-15s-6-14-14-14z m43 43c-8 0-14 7-14 15s6 14 14 14c8 0 15-6 15-14s-7-15-15-15z m0-86c-8 0-14 6-14 14s6 15 14 15c8 0 15-7 15-15s-7-14-15-14z m44 130c-8 0-15 6-15 14s7 15 15 15c8 0 14-7 14-15s-6-14-14-14z m86 0c-8 0-14 6-14 14s6 15 14 15c8 0 15-7 15-15s-7-14-15-14z m-86-87c-8 0-15 7-15 14s7 15 15 15c8 0 14-7 14-15s-6-14-14-14z m86 0c-8 0-14 7-14 14s6 15 14 15c8 0 15-7 15-15s-7-14-15-14z m-43 43c-8 0-14 7-14 15s6 14 14 14c8 0 14-6 14-14s-6-15-14-15z m87 0c-8 0-15 7-15 15s7 14 15 14c8 0 14-6 14-14s-6-15-14-15z m-87-86c-8 0-14 6-14 14s6 15 14 15c8 0 14-7 14-15s-6-14-14-14z m87 0c-8 0-15 6-15 14s7 15 15 15c8 0 14-7 14-15s-6-14-14-14z m123 679c28 0 50-23 50-50v-352l-27-46 27-46v-265c0-28-22-50-50-50h-362c-28 0-50 22-50 50v709c0 27 22 50 50 50h94v57h174v-57h94z m21-394v344c0 11-9 21-21 21h-362c-12 0-21-10-21-21v-167c8 0 14-7 14-15s-6-14-14-14v-58c8 0 14-6 14-14s-6-15-14-15v-57c8 0 14-7 14-15s-6-14-14-14v-58c8 0 14-7 14-15s-6-14-14-14v-58c8 0 14-6 14-14s-6-15-14-15v-57c8 0 14-7 14-15s-6-14-14-14v-58c8 0 14-7 14-15 0-7-6-13-13-14 3-8 10-14 20-14h362c12 0 21 9 21 21v257l-23 39h-26l-38-61v-25c0-8-6-15-14-15s-14 7-14 15v14h-15c-8 0-14 7-14 15s6 14 14 14h21l33 56-31 31h-37c-8 0-15 6-15 14s7 15 15 15h29v28c0 8 6 15 14 15s14-7 14-15v-37l35-35h29l23 40z m-14-155c-8 0-15 6-15 14s7 15 15 15c8 0 14-7 14-15s-6-14-14-14z m-87-87c-8 0-14 7-14 14s6 15 14 15c8 0 14-7 14-15s-6-14-14-14z m87 0c-8 0-15 7-15 14s7 15 15 15c8 0 14-7 14-15s-6-14-14-14z m-44 43c-8 0-14 7-14 15s6 14 14 14c8 0 15-6 15-14s-7-15-15-15z m0-86c-8 0-14 6-14 14s6 15 14 15c8 0 15-7 15-15s-7-14-15-14z m-303-44c-8 0-14 7-14 15s6 14 14 14c8 0 14-6 14-14s-6-15-14-15z m43-43c-8 0-14 6-14 14s6 15 14 15c8 0 15-7 15-15s-7-14-15-14z m44 43c-8 0-15 7-15 15s7 14 15 14c8 0 14-6 14-14s-6-15-14-15z m86 0c-8 0-14 7-14 15s6 14 14 14c8 0 15-6 15-14s-7-15-15-15z m-43-43c-8 0-14 6-14 14s6 15 14 15c8 0 14-7 14-15s-6-14-14-14z m87 0c-8 0-15 6-15 14s7 15 15 15c8 0 14-7 14-15s-6-14-14-14z m43 43c-8 0-14 7-14 15s6 14 14 14c8 0 14-6 14-14s-6-15-14-15z m87 0c-8 0-15 7-15 15s7 14 15 14c8 0 14-6 14-14s-6-15-14-15z m-44-43c-8 0-14 6-14 14s6 15 14 15c8 0 15-7 15-15s-7-14-15-14z" horiz-adv-x="1000" />

<glyph glyph-name="battery-9" unicode="&#xe933;" d="M581 729c28 0 50-22 50-50v-355l-27-47 27-46v-268c0-28-22-51-50-51h-366c-28 0-50 23-50 51v716c0 28 22 50 50 50h95v59h175v-59h96z m-241 29v-29h116v29h-116z m262-426v347c0 11-9 21-21 21h-366c-12 0-21-10-21-21v-169c8 0 14-6 14-14s-6-15-14-15v-58c8 0 14-7 14-15s-6-14-14-14v-59c8 0 14-6 14-14s-6-15-14-15v-58c8 0 14-7 14-15s-6-14-14-14v-59c8 0 14-6 14-14s-6-15-14-15v-58c8 0 14-7 14-15s-6-14-14-14v-59c8 0 14-6 14-14 0-8-6-14-13-15 3-8 11-14 20-14h366c12 0 21 9 21 21v260l-23 40h-27l-37-63v-25c0-8-7-15-15-15s-15 7-15 15v15h-14c-8 0-15 6-15 14s7 15 15 15h21l33 56-31 31h-38c-8 0-14 7-14 15s6 14 14 14h29v30c0 8 7 14 15 14s15-6 15-14v-38l35-35h29l23 40z m-364 106c-9 0-15 6-15 14s6 15 15 15c8 0 14-7 14-15s-6-14-14-14z m43 43c-8 0-14 7-14 15s6 14 14 14c8 0 15-6 15-14s-7-15-15-15z m0-87c-8 0-14 6-14 14s6 15 14 15c8 0 15-7 15-15s-7-14-15-14z m44 44c-8 0-15 6-15 14s7 15 15 15c8 0 15-7 15-15s-7-14-15-14z m44-44c-8 0-15 6-15 14s7 15 15 15c8 0 14-7 14-15s-6-14-14-14z m-131-44c-9 0-15 7-15 15s6 14 15 14c8 0 14-6 14-14s-6-15-14-15z m0-87c-9 0-15 6-15 14s6 15 15 15c8 0 14-7 14-15s-6-14-14-14z m43 43c-8 0-14 7-14 15s6 14 14 14c8 0 15-6 15-14s-7-15-15-15z m0-87c-8 0-14 6-14 14s6 15 14 15c8 0 15-7 15-15s-7-14-15-14z m44 131c-8 0-15 7-15 15s7 14 15 14c8 0 15-6 15-14s-7-15-15-15z m0-87c-8 0-15 6-15 14s7 15 15 15c8 0 15-7 15-15s-7-14-15-14z m88 0c-9 0-15 6-15 14s6 15 15 15c8 0 14-7 14-15s-6-14-14-14z m-44 43c-8 0-15 7-15 15s7 14 15 14c8 0 14-6 14-14s-6-15-14-15z m306-73c-8 0-15 7-15 15s7 15 15 15c8 0 15-7 15-15s-7-15-15-15z m29-102c-8 0-14 7-14 15s6 14 14 14c8 0 15-6 15-14s-7-15-15-15z m0 59c-8 0-14 6-14 14s6 15 14 15c8 0 15-7 15-15s-7-14-15-14z m29-102c-8 0-14 6-14 14s6 15 14 15c8 0 15-7 15-15s-7-14-15-14z m15-44c-8 0-15 6-15 14s7 15 15 15c8 0 15-7 15-15s-7-14-15-14z m44-59c-8 0-15 7-15 15s7 15 15 15c8 0 14-7 14-15s-6-15-14-15z m-29 146c-9 0-15 7-15 15s6 14 15 14c8 0 14-6 14-14s-6-15-14-15z m0 59c-9 0-15 6-15 14s6 15 15 15c8 0 14-7 14-15s-6-14-14-14z m29-117c-8 0-15 6-15 15s7 14 15 14c8 0 14-6 14-14s-6-15-14-15z m-44-88c-8 0-15 7-15 15s7 15 15 15c8 0 15-7 15-15s-7-15-15-15z m73 44c-8 0-15 7-15 15s7 14 15 14c8 0 14-6 14-14s-6-15-14-15z m-15-102c-8 0-14 7-14 15s6 14 14 14c8 0 15-6 15-14s-7-15-15-15z m-437 292c-8 0-15 6-15 14s7 15 15 15c8 0 14-7 14-15s-6-14-14-14z m-131-44c-9 0-15 7-15 15s6 14 15 14c8 0 14-6 14-14s-6-15-14-15z m0-87c-9 0-15 6-15 14s6 15 15 15c8 0 14-7 14-15s-6-14-14-14z m43 43c-8 0-14 7-14 15s6 14 14 14c8 0 15-6 15-14s-7-15-15-15z m0-87c-8 0-14 6-14 14s6 15 14 15c8 0 15-7 15-15s-7-14-15-14z m44 131c-8 0-15 7-15 15s7 14 15 14c8 0 15-6 15-14s-7-15-15-15z m88 0c-9 0-15 7-15 15s6 14 15 14c8 0 14-6 14-14s-6-15-14-15z m-88-87c-8 0-15 6-15 14s7 15 15 15c8 0 15-7 15-15s-7-14-15-14z m88 0c-9 0-15 6-15 14s6 15 15 15c8 0 14-7 14-15s-6-14-14-14z m-44 43c-8 0-15 7-15 15s7 14 15 14c8 0 14-6 14-14s-6-15-14-15z m87 0c-8 0-14 7-14 15s6 14 14 14c8 0 15-6 15-14s-7-15-15-15z m-87-87c-8 0-15 6-15 14s7 15 15 15c8 0 14-7 14-15s-6-14-14-14z m87 0c-8 0-14 6-14 14s6 15 14 15c8 0 15-7 15-15s-7-14-15-14z m132 131c-9 0-15 7-15 15s6 14 15 14c8 0 14-6 14-14s-6-15-14-15z m-88-87c-8 0-15 6-15 14s7 15 15 15c8 0 15-7 15-15s-7-14-15-14z m88 0c-9 0-15 6-15 14s6 15 15 15c8 0 14-7 14-15s-6-14-14-14z m-44 43c-8 0-15 7-15 15s7 14 15 14c8 0 14-6 14-14s-6-15-14-15z m0-87c-8 0-15 6-15 14s7 15 15 15c8 0 14-7 14-15s-6-14-14-14z m-306-44c-9 0-15 7-15 15s6 14 15 14c8 0 14-6 14-14s-6-15-14-15z m43-44c-8 0-14 7-14 15s6 14 14 14c8 0 15-6 15-14s-7-15-15-15z m44 44c-8 0-15 7-15 15s7 14 15 14c8 0 15-6 15-14s-7-15-15-15z m88 0c-9 0-15 7-15 15s6 14 15 14c8 0 14-6 14-14s-6-15-14-15z m-44-44c-8 0-15 7-15 15s7 14 15 14c8 0 14-6 14-14s-6-15-14-15z m87 0c-8 0-14 7-14 15s6 14 14 14c8 0 15-6 15-14s-7-15-15-15z m44 44c-8 0-15 7-15 15s7 14 15 14c8 0 15-6 15-14s-7-15-15-15z m88 0c-9 0-15 7-15 15s6 14 15 14c8 0 14-6 14-14s-6-15-14-15z m-44-44c-8 0-15 7-15 15s7 14 15 14c8 0 14-6 14-14s-6-15-14-15z" horiz-adv-x="1000" />

<glyph glyph-name="battery-fill" unicode="&#xe934;" d="M681 726c28 0 50-23 50-50v-709c0-28-22-50-50-50h-362c-28 0-50 22-50 50v709c0 27 22 50 50 50h94v57h174v-57h94z m21-759v709c0 11-9 21-21 21h-362c-12 0-21-10-21-21v-709c0-12 9-21 21-21h362c12 0 21 9 21 21z m-101 397c5 0 10-2 13-6s2-10 0-15l-129-245c0-1-1-1-1-2-3-4-8-6-12-6-4 0-9 2-12 6-2 3-3 6-3 10h0l0 186h-58c-5 0-10 3-13 8-2 4-2 10 1 14l143 231c0 1 0 1 1 2 5 6 18 6 23 0 3-3 4-7 4-11v-172h43z" horiz-adv-x="1000" />

<glyph glyph-name="battery" unicode="&#xe935;" d="M683 729c28 0 50-22 50-50v-716c0-28-22-51-50-51h-366c-28 0-50 23-50 51v716c0 28 22 50 50 50h96v59h175v-59h95z m-241 29v-29h116v29h-116z m262-795v716c0 11-9 21-21 21h-366c-12 0-21-10-21-21v-716c0-12 9-21 21-21h366c12 0 21 9 21 21z m-146 575v-173h68l-142-272-8-9-11 5c-6 3-9 9-9 15l0 188h-84l159 257 7 8 12-4c5-3 9-9 8-15z m20-203h-49v155l-105-169h61l0-162 93 176z" horiz-adv-x="1000" />

</font>
</defs>
</svg>
